[ Сегодня на трекере фрилич! Идет свободное скачивание без начисления Download ]

Стивен Кинг - Четверть после полуночи [2014 г., Вячеслав Герасимов, MP3, 36:24:32]

 

Создавать темы 14-Май-2014 02:26

-Четверть после полуночи-- Год выпуска: 2014 г.
Автор / Официальный сайт: Стивен Кинг
Прочитано по изданию: СПб, ИМА-Пресс-реклама, 1993
Перевод с англ.: Виктор Вебер, Георгий Ананов
Исполнитель: Вячеслав Герасимов
Звукорежиссёр: Вера Орлова
Жанр: Мистика, ужасы, фантастика
Издательство: Нигде не купишь (Клуб любителей аудиокниг)
Тип аудиокниги: аудиокнига-Аудио кодек: MP3
Битрейт аудио: 96 kbps, 44 kHz, Mono
Время звучания: 36:24:32-Описание:
Представляем Вашему вниманию сборник рассказов Стивена Кинга «Четверть после полуночи», впервые опубликованный в 1990 году.

01. Лангольеры:

Длительность: 11:58:10
Описание:
Реальность и ирреальность сплетаются воедино, и в результате человек погружается в омут такого кошмара, какой не мог даже вообразить! Одиннадцать пассажиров авиалайнера очнулись - и оказалось, что, кроме них, в самолете нет никого, даже пилота, что они - в эпицентре ужаса, в застывшем параллельном мире, где нет ни звука, ни запаха, ни вкуса, ни времени. Зато здесь обитают чудовищные твари, убийцы всего живого - лангольеры...

MediaInfo:

Общее
Полное имя : King_Chetvert.Posle.Polunochi\01. Лангольеры\01_01_01_Langolery.mp3
Формат : MPEG Audio
Размер файла : 14,8 Мбайт
Продолжительность : 21 м.
Режим общего битрейта : Постоянный
Общий поток : 96,0 Кбит/сек
Альбом : Лангольеры
Трек : 01_01_01_Langolery
Трек/Положение : 04
Трек/Всего : 34
Исполнитель : Кинг Стивен
Издатель : Клуб любителей аудиокниг
Жанр : speech
Дата записи : 2014
Правообладатель : Нигде не купишь
Обложка : Yes
Тип обложки : Cover (front)
MIME-тип обложки : image/jpeg
Примечание : Герасимов Вячеслав
Аудио
Формат : MPEG Audio
Версия формата : Version 1
Профиль формата : Layer 3
Продолжительность : 21 м.
Вид битрейта : Постоянный
Битрейт : 96,0 Кбит/сек
Каналы : 1 канал
Частота : 44,1 КГц
Метод сжатия : С потерями
Размер потока : 14,8 Мбайт (99%)

02. Потаенное окно, потаенный сад:

Длительность: 07:10:28
Описание:
Быть писателем заманчиво, а известным - ещё и опасно. В этом однажды убедился Мортон Рейни, открыв дверь загородного дома мужчине в шляпе. Фермер Джон Шутер обвинил автора в плагиате и предложил разобраться без посторонних. Чтобы хуже не было.

MediaInfo:

Общее
Полное имя : King_Chetvert.Posle.Polunochi\02 Потаенное окно, потаенный сад\02_01_PotaYonnoe_okno_potaYonnyy_sad.mp3
Формат : MPEG Audio
Размер файла : 16,0 Мбайт
Продолжительность : 23 м.
Режим общего битрейта : Постоянный
Общий поток : 96,0 Кбит/сек
Альбом : Потаённое окно, потаённый сад
Трек : 02_01_Потаённое окно, потаённый сад
Трек/Положение : 02
Трек/Всего : 19
Исполнитель : Кинг Стивен
Издатель : Клуб любителей аудиокниг
Жанр : speech
Дата записи : 2014
Правообладатель : Нигде не купишь
Обложка : Yes
Тип обложки : Cover (front)
MIME-тип обложки : image/jpeg
Примечание : Герасимов Вячеслав
Аудио
Формат : MPEG Audio
Версия формата : Version 1
Профиль формата : Layer 3
Продолжительность : 23 м.
Вид битрейта : Постоянный
Битрейт : 96,0 Кбит/сек
Каналы : 1 канал
Частота : 44,1 КГц
Метод сжатия : С потерями
Размер потока : 16,0 Мбайт (100%)

03. Полицейский из библиотеки:

Длительность: 09:46:08
Описание:
В библиотеке маленького айовского городка причудливо изгибаются пространство и время, из самых глубин подсознания выходит безжалостный мститель - полицейский, а тихая женщина постепенно обращается в жуткое нечто, питающееся человеческим страхом...

MediaInfo:

Общее
Полное имя : King_Chetvert.Posle.Polunochi\03. Полицейский из библиотеки\03_01_Dubler.mp3
Формат : MPEG Audio
Размер файла : 11,3 Мбайт
Продолжительность : 16 м.
Режим общего битрейта : Постоянный
Общий поток : 96,0 Кбит/сек
Альбом : Полицейский из библиотеки
Трек : 03_01_Дублер
Трек/Положение : 03
Трек/Всего : 29
Исполнитель : Кинг Стивен
Издатель : Клуб любителей аудиокниг
Жанр : speech
Дата записи : 2014
Правообладатель : Нигде не купишь
Обложка : Yes
Тип обложки : Cover (front)
MIME-тип обложки : image/jpeg
Примечание : Герасимов Вячеслав
Аудио
Формат : MPEG Audio
Версия формата : Version 1
Профиль формата : Layer 3
Продолжительность : 16 м.
Вид битрейта : Постоянный
Битрейт : 96,0 Кбит/сек
Каналы : 1 канал
Частота : 44,1 КГц
Метод сжатия : С потерями
Размер потока : 11,2 Мбайт (99%)

04. Солнечный пес:

Длительность: 07:29:46
Описание:
Что происходит с людьми, когда они сталкиваются с неизвестностью? Что происходит с теми, кто пытается совладать с вещами, о которых ничего не знает? Однажды вам в руки попадается фотокамера, и вы начинаете делать снимки. Но что, если на фотографиях вы разглядите тех, кого не видит никто? Что, если они будут пугающими? И что, если с каждой фотографией они будут всё ближе и ближе к вам? Конец уже близок...

MediaInfo:

Общее
Полное имя : King_Chetvert.Posle.Polunochi\04. Солнечный пес\04_01_Solnechnyy_pYos.mp3
Формат : MPEG Audio
Размер файла : 19,3 Мбайт
Продолжительность : 27 м.
Режим общего битрейта : Постоянный
Общий поток : 96,0 Кбит/сек
Альбом : Солнечный пёс
Трек : 04_02_01_Солнечный пёс
Трек/Положение : 02
Трек/Всего : 32
Исполнитель : Кинг Стивен
Издатель : Клуб любителей аудиокниг
Жанр : speech
Дата записи : 2014
Правообладатель : Нигде не купишь
Обложка : Yes
Тип обложки : Cover (front)
MIME-тип обложки : image/jpeg
Примечание : Герасимов Вячеслав
Аудио
Формат : MPEG Audio
Версия формата : Version 1
Профиль формата : Layer 3
Продолжительность : 28 м.
Вид битрейта : Постоянный
Битрейт : 96,0 Кбит/сек
Каналы : 1 канал
Частота : 44,1 КГц
Метод сжатия : С потерями
Размер потока : 19,2 Мбайт (100%)

О Стивене Кинге:

Сти́вен Э́двин Кинг (англ. Stephen Edwin King; род. 21 сентября 1947, Портленд, Мэн, США) - американский писатель, работающий в разнообразных жанрах, включая ужасы, триллер, фантастику, фэнтези, мистику, драму; получил прозвище - «Король ужасов». Продано более 350 миллионов экземпляров его книг, по которым были сняты ряд художественных фильмов, телевизионных постановок, а также нарисованы комиксы. Кинг опубликовал 50 романов, в том числе 7 под псевдонимом Ричард Бахман, и 5 научно-популярных книг. Он написал около двух сотен рассказов, большинство из которых были собраны в девять авторских сборников. Действие многих его рассказов происходит в его родном штате Мэн. За свое творчество Кинг получил «Премию Брэма Стокера», «Всемирную премию фэнтези», награду Британского общества фэнтези, его повесть «Промежуточная станция» была кандидатом на премию «Небьюла», и его рассказ «Человек в чёрном костюме» получил «Премию О. Генри». В 2003 году Национальный фонд книг наградил его медалью «За выдающийся вклад в американскую литературу». Он также получал награды за вклад в литературу на протяжении всей его карьеры, такие как премии «За вклад в мировое Фэнтези» (2004), был награждён Канадской ассоциацией книготорговцев (2007) и званием «Великого Магистра» от Американских писателей мистиков (2007).
Стивен Кинг родился в Портленде, штат Мэн. Когда Стивену было два года, его отец вышел из дому за сигаретами и больше его никто никогда не видел. Детство Стивен провел в разъездах между Фортом Уэйн, штат Индиана, где жила семья его отца, и штатами Массачусетс и Мэн, где жили родственники матери. В конце концов, Стивен и Дэвид обосновались вместе с матерью в Дурхэме, штат Мэн. Там же они и учились. В школе Кинг увлекался фильмами ужасов 50-х годов, играл в футбольной команде и рок-н-рольной группе. В 1966 году он окончил школу и поступил в Университет штата Мэн в Ороно, который окончил в 1970 году. В 1971 году он женился на Табите Спрюс, с которой познакомился и подружился в университете.
Первая книга Стивена Кинга - рассказ, который он продал в журнал детективов еще во время учебы в школе. Стивен долго не мог устроиться на работу по специальности, поэтому молодая чета существовала на те деньги, что Стивен зарабатывал чернорабочим в промышленной прачечной, и на студенческие ссуды и сбережения Табиты. Случайные гонорары, которые Стивен получал, публикуя рассказы в разнообразных «журналах для мужчин», оказывались серьезным подспорьем. Осенью 1971 года Стивен Кинг начал преподавать английский язык в Общественной средней школе Хэмдена, штат Мэн. Все свободное время он посвящал работе над книгами: рассказами и будущими романами. Первые два романа Стивена Кинга многократно отвергались многими издателями и Кинг, доведенный до отчаяния, даже выкинул рукопись одного из них в мусорную корзину, однако по настоянию жены предпринял последнюю попытку и послал извлеченную из помойки рукопись в издательство «Doubleday» и через некоторое время получил чек на 2,500 долларов. Роман назывался «Кэрри».
Интересно, что роман «Бегущий человек» Кинг написал всего за 10 суток. При этом книги Стивена Кинга были изданы суммарным тиражом в сотни миллионов экземпляров и переведены на большинство языков мира. Стивен Кинг стал самым богатым писателем за всю историю литературы. Многие (более сотни!) книги писателя экранизированы.
Стивен Кинг живет в Бангоре, штат Мэн, действия в котором зачастую разворачиваются в его книгах.
Яндекс.Метрика
Рейтинг@Mail.ru