Агора / Agora (Алехандро Аменабар / Alejandro Amenábar) [2009 г., драма, история, BDRip, 1080p] Dub + Original (Eng) + Sub (Rus, Eng)

 

Создавать темы 13-Май-2014 15:29

-Агора / Agora-«Александрия, Египет. 391 год н.э. Мир изменился навсегда»- Год выпуска: 2009 г.
Производство: Испания , Mod Producciones
Жанр: драма, история
Продолжительность: 02:06:23
Мировая премьера: 17 мая 2009
Российская премьера: 11 февраля 2010, «Парадиз»
Дата выхода DVD: 11 марта 2010, «Парадиз Медиа»
Перевод: Профессиональный (полное дублирование)
Оригинальный аудиопоток: английский
Режиссёр: Алехандро Аменабар / Alejandro Amenábar-В ролях: Рэйчел Вайс, Макс Мингелла, Оскар Айзек, Ашраф Бархом, Микаэль Лонсдаль, Руперт Эванс, Ричард Дерден, Сами Самир, Мануэль Коши, Хомаён Эршади-Описание: Египет. Александрия. Начало V века нашей эры. Гипатия - дочь директора Александрийской библиотеки, в которой собрана вся мудрость мира - любит двух мужчин: раба Давуса и политика Ореса. Предпочитая мирской суете занятия философией и астрономией, она держится в стороне от межрелигиозной розни, разжигаемой христианскими фундаменталистами. И, в конечном итоге, становится их жертвой.
-Качество видео: BDRip
Контейнер: MKV
Стандарт разрешения: 1080p
Видео кодек: AVC
Аудио кодек: AC3
Видео: 1920x816 (2.35:1), 18500 kbps, 24 fps, 0,492 bit/pixel
Аудио: Russian [Dub]: AC3, 448 kbps, 6 ch, 48.0 kHz
Аудио #2: English [Org]: DTS, 768 kbps, 6 ch, 48.0 kHz
Аудио #3: Spanish: AC3, 448 kbps, 2 ch, 48.0 kHz [комментарии режиссёра]
Аудио #4: Spanish: AC3, 256 kbps, 2 ch, 48.0 kHz [комментарии]
Cубтитры: русские, английские
Чаптеры: сохранены оригинальные

Media Info

Общее
Уникальный идентификатор : 179357365386376444562430544833738491789 (0x86EEF8D9DE3812148F6DD0CBE1E4C78D)
Полное имя : Agora.2009.[BDRip.1080p].mkv
Формат : Matroska
Версия формата : Version 2
Размер файла : 18,0 Гбайт
Продолжительность : 2 ч. 7 м.
Общий поток : 20,2 Мбит/сек
Дата кодирования : UTC 2012-07-24 15:19:51
Программа кодирования : mkvmerge v5.7.0 ('The Whirlwind') built on Jul 10 2012 18:39:26
Библиотека кодирования : libebml v1.2.3 + libmatroska v1.3.0
Видео
Идентификатор : 1
Формат : AVC
Формат/Информация : Advanced Video Codec
Профиль формата : [email protected]
Параметр CABAC формата : Да
Параметр ReFrames формата : 5 кадров
Идентификатор кодека : V_MPEG4/ISO/AVC
Продолжительность : 2 ч. 7 м.
Битрейт : 18,5 Мбит/сек
Ширина : 1920 пикселей
Высота : 816 пикселей
Соотношение сторон : 2,35:1
Режим частоты кадров : Постоянный
Частота кадров : 24,000 кадра/сек
Цветовое пространство : YUV
Субдискретизация насыщенности : 4:2:0
Битовая глубина : 8 бит
Тип развёртки : Прогрессивная
Бит/(Пиксели*Кадры) : 0.492
Размер потока : 16,0 Гбайт (89%)
Заголовок : 68% of the original
Библиотека кодирования : x264 core 125 r2208kMod d9d2288
Настройки программы : cabac=1 / ref=5 / deblock=1:-3:-3 / analyse=0x3:0x133 / me=umh / subme=11 / psy=1 / fade_compensate=0.00 / psy_rd=1.15:0.05 / mixed_ref=1 / me_range=48 / chroma_me=1 / trellis=2 / 8x8dct=1 / cqm=0 / deadzone=21,11 / fast_pskip=0 / chroma_qp_offset=-3 / threads=12 / lookahead_threads=2 / sliced_threads=0 / nr=0 / decimate=0 / interlaced=0 / bluray_compat=0 / constrained_intra=0 / bframes=12 / b_pyramid=2 / b_adapt=2 / b_bias=0 / direct=3 / weightb=1 / open_gop=0 / weightp=2 / keyint=240 / keyint_min=23 / scenecut=40 / intra_refresh=0 / rc_lookahead=120 / rc=2pass / mbtree=1 / bitrate=18500 / ratetol=1.0 / qcomp=0.70 / qpmin=0 / qpmax=69 / qpstep=4 / cplxblur=20.0 / qblur=0.5 / ip_ratio=1.40 / aq=1:0.60 / zones=171660,174484,b=0.4/174485,182001,b=0.2
Язык : English
Default : Да
Forced : Нет
Основные цвета : BT.709
Характеристики трансфера : BT.709
Коэффициенты матрицы : BT.709
Аудио #1
Идентификатор : 2
Формат : AC-3
Формат/Информация : Audio Coding 3
Расширение режима : CM (complete main)
Параметр Endianness формата : Big
Идентификатор кодека : A_AC3
Продолжительность : 2 ч. 7 м.
Вид битрейта : Постоянный
Битрейт : 448 Кбит/сек
Каналы : 6 каналов
Расположение каналов : Front: L C R, Side: L R, LFE
Частота : 48,0 КГц
Битовая глубина : 16 бит
Метод сжатия : С потерями
Размер потока : 408 Мбайт (2%)
Заголовок : Dub AC3 6ch 448kbps
Язык : Russian
Default : Да
Forced : Нет
Аудио #2
Идентификатор : 3
Формат : DTS
Формат/Информация : Digital Theater Systems
Режим : 16
Параметр Endianness формата : Big
Идентификатор кодека : A_DTS
Продолжительность : 2 ч. 7 м.
Вид битрейта : Постоянный
Битрейт : 768 Кбит/сек
Каналы : 6 каналов
Расположение каналов : Front: L C R, Side: L R, LFE
Частота : 48,0 КГц
Битовая глубина : 16 бит
Метод сжатия : С потерями
Размер потока : 700 Мбайт (4%)
Заголовок : Original DTS 6ch 755kbps
Язык : English
Default : Нет
Forced : Нет
Аудио #3
Идентификатор : 4
Формат : AC-3
Формат/Информация : Audio Coding 3
Расширение режима : CM (complete main)
Параметр Endianness формата : Big
Идентификатор кодека : A_AC3
Продолжительность : 2 ч. 7 м.
Вид битрейта : Постоянный
Битрейт : 448 Кбит/сек
Каналы : 2 канала
Расположение каналов : Front: L R
Частота : 48,0 КГц
Битовая глубина : 16 бит
Метод сжатия : С потерями
Размер потока : 408 Мбайт (2%)
Заголовок : AC3 2ch 448kbps (commentary #1)
Язык : Spanish
Default : Нет
Forced : Нет
Аудио #4
Идентификатор : 5
Формат : AC-3
Формат/Информация : Audio Coding 3
Расширение режима : CM (complete main)
Параметр Endianness формата : Big
Идентификатор кодека : A_AC3
Продолжительность : 2 ч. 7 м.
Вид битрейта : Постоянный
Битрейт : 256 Кбит/сек
Каналы : 2 канала
Расположение каналов : Front: L R
Частота : 48,0 КГц
Битовая глубина : 16 бит
Метод сжатия : С потерями
Размер потока : 233 Мбайт (1%)
Заголовок : AC3 2ch 256kbps (commentary #2)
Язык : Spanish
Default : Нет
Forced : Нет
Текст #1
Идентификатор : 6
Формат : UTF-8
Идентификатор кодека : S_TEXT/UTF8
Идентификатор кодека/Информация : UTF-8 Plain Text
Язык : Russian
Default : Нет
Forced : Нет
Текст #2
Идентификатор : 7
Формат : UTF-8
Идентификатор кодека : S_TEXT/UTF8
Идентификатор кодека/Информация : UTF-8 Plain Text
Язык : English
Default : Нет
Forced : Нет
Меню
00:00:00.000 : en:00:00:00.000
00:09:02.750 : en:00:09:02.750
00:19:11.333 : en:00:19:11.333
00:28:36.375 : en:00:28:36.375
00:40:03.333 : en:00:40:03.333
00:52:53.708 : en:00:52:53.708
01:00:24.875 : en:01:00:24.875
01:10:24.792 : en:01:10:24.792
01:19:50.042 : en:01:19:50.042
01:33:36.250 : en:01:33:36.250
01:41:00.042 : en:01:41:00.042
01:52:01.583 : en:01:52:01.583

Скриншоты

Яндекс.Метрика
Рейтинг@Mail.ru