Бегущий по лезвию / Blade Runner (1982) BDRip [H.264/720р-LQ] [The Final Cut]

 

Создавать темы 13-Май-2014 14:51

-Бегущий по лезвию / Blade Runner (1982) BDRip [The Final Cut]«A Futuristic Vision Perfected»- Год выпуска: 1982
Производство: США, Гонконг, Великобритания
Жанр: Фантастика, Триллер, Драма, Мелодрама
Режиссер: Ридли Скотт
Продюсер: Майкл Дили, Хэмптон Фанчер, Брайан Келли
Актеры: Харрисон Форд, Рутгер Хауэр, Шон Янг, Эдвард Джеймс Олмос, М. Эммет Уолш, Дэрил Ханна, Уильям Сэндерсон, Брайон Джеймс, Джо Тёркел, Джоанна Кэссиди
Описание фильма:
Отставной детектив Рик Декард вновь восстановлен в полиции Лос-Анджелеса для поиска возглавляемой Роем Батти группы киборгов, совершившей побег из космической колонии на Землю.
В полиции считают, что киборги пытаются встретиться с Эндолом Тайреллом, руководителем корпорации, ставящей эксперименты над кибернетическим интеллектом. Рик Декард получает задание выяснить мотивы действий киборгов, а затем уничтожить их.
Перевод: Дублированный (Blu-ray CEE), Профессиональный (многоголосый, закадровый) x2, Профессиональный (одноголосый, закадровый / А. Гаврилов)
Субтитры: Вшитые отключаемые
Язык субтитров: Русский, Украинский, Английский
Рейтинг MPAA: R (лицам до 17 лет обязательно присутствие взрослого)
Возраст: 16+

Дата мировой премьеры: 25 июня 1982
Релиз на Blu-Ray: 23 ноября 2010, «Юниверсал Пикчерс Рус»
Дата выхода DVD релиза: 19 апреля 2012, «CP Дистрибуция»
Продолжительность: 01:57:36
Качество видео: BDRip [Leonardo]
Видеокодек: MPEG-4 AVC/H.264
Битрейт видео: ~3352 kbps
Размер кадра: 1280x534, 23,976 fps
Аудио #1: AC3, 48.0 KHz, 6 ch, 640 Кбит/с) (Русский, Дублированный / Blu-ray CEE)
Аудио #2: AC3, 48.0 KHz, 6 ch, 448 Кбит/с) (Русский, Профессиональный многоголосый / Киномания)
Аудио #3: AC3, 48.0 KHz, 6 ch, 448 Кбит/с) (Русский, Профессиональный многоголосый / Tycoon-studio)
Аудио #4: AC3, 48.0 KHz, 6 ch, 640 Кбит/с) (Русский, Авторский одноголосый / А. Гаврилов)
Аудио #5: AC3, 48.0 KHz, 6 ch, 640 Кбит/с) (Английский)

Знаете ли вы, что...

• Фильм снят по мотивам романа Филипа Дика «Мечтают ли андроиды об электроовцах?» (Do Androids Dream of Electric Sheep?, 1968).
• Когда фильм вышел на экраны, многие утверждали, что начальная сцена снималась на химическом заводе в Уилтоне, Англия. Однако на самом деле это — миниатюрная модель размерами 18 футов в ширину и 13 футов в высоту (5,5 и 3,9 метров соответственно).
• По сюжету этого фильма в США в 1997 году была выпущена довольно удачная видеоигра. В дополнение к видеоигре режиссером Барри Грином был снят семиминутный документальный фильм «Создание «Бегущего по лезвию бритвы» (1997).
• «Blade Runner» — в буквальном переводе «живодер», «убойщик». Именно эти эпитеты вкладывал режиссер Ридли Скотт в профессию Рика Декарда.
• Первоначальный сценарий к этому фильму, основанный на книге Алана Нурса «Бегущий по лезвию бритвы», написал Уильям С. Берроуз. Ридли Скотт купил права на заголовок, но не на сценарий и книгу.
• Глаза у репликантов немного подсвечены, но, как заверяет режиссер, это было сделано только лишь для зрителей, дабы те отличали их от настоящих людей.
• Первоначально на роль Декарда был выбран Дастин Хоффман.
• Картина снималась в основном в Лос-Анджелесе, но некоторые студийные съемки производились и в Великобритании в городе Шеппертон (графство Суррей).
• Дебора Харри была первоначальным выбором продюсеров на роль Прис.
• Остальные факты на kinopoisk.ru

Награды:

Сатурн, 2008 год
Победитель (1):
• Лучшее специальное DVD-издание — «5 Disc Ultimate Collector's Edition»
Сатурн, 1994 год
Номинации (1):
• Лучшее жанровое VHS-издание — «For the director's cut»
Оскар, 1983 год
Номинации (2):
• Лучшие декорации
• Лучшие визуальные эффекты
Золотой глобус, 1983 год
Номинации (1):
• Лучший саундтрек
Британская академия, 1983 год
Победитель (3):
• Лучшая работа оператора
• Лучшая работа художника-постановщика
• Лучшие костюмы
Номинации (5):
• Лучший звук
• Лучший монтаж
• Лучшие визуальные эффекты
• Лучший саундтрек
• Лучший грим
Сатурн, 1983 год
Номинации (4):
• Лучший научно-фантастический фильм
• Лучший режиссер (Ридли Скотт)
• Лучший актер второго плана (Рутгер Хауэр)
• Лучшие спецэффекты

MediaInfo:

Формат                                   : Matroska
Версия формата                           : Version 2
Размер файла                             : 5,17 Гбайт
Продолжительность                        : 1 ч. 57 м.
Общий поток                              : 6293 Кбит/сек
Название фильма                          : Blade Runner (1982)
Дата кодирования                         : UTC 2014-05-12 07:16:49
Программа кодирования                    : mkvmerge v6.9.1 ('Blue Panther') 64bit built on Apr 18 2014 18:23:38
Библиотека кодирования                   : libebml v1.3.0 + libmatroska v1.4.1
Видео
Идентификатор                            : 1
Формат                                   : AVC
Формат/Информация                        : Advanced Video Codec
Профиль формата                          : [url=mailto:[email protected]][email protected][/url]
Параметр CABAC формата                   : Да
Параметр ReFrames формата                : 8 кадров
Идентификатор кодека                     : V_MPEG4/ISO/AVC
Продолжительность                        : 1 ч. 57 м.
Битрейт                                  : 3352 Кбит/сек
Ширина                                   : 1280 пикселей
Высота                                   : 534 пикселя
Соотношение сторон                       : 2,40:1
Режим частоты кадров                     : Постоянный
Частота кадров                           : 23,976 кадра/сек
Цветовое пространство                    : YUV
Субдискретизация насыщенности            : 4:2:0
Битовая глубина                          : 8 бит
Тип развёртки                            : Прогрессивная
Бит/(Пиксели*Кадры)                      : 0.205
Размер потока                            : 2,75 Гбайт (53%)
Библиотека кодирования                   : x264 core 125 r2208 d9d2288
Настройки программы                      : cabac=1 / ref=8 / deblock=1:-3:-3 / analyse=0x3:0x133 / me=umh / subme=11 / psy=1 / psy_rd=1.00:0.20 / mixed_ref=1 / me_range=32 / chroma_me=1 / trellis=2 / 8x8dct=1 / cqm=0 / deadzone=21,11 / fast_pskip=0 / chroma_qp_offset=-3 / threads=12 / lookahead_threads=2 / sliced_threads=0 / nr=0 / decimate=1 / interlaced=0 / bluray_compat=0 / constrained_intra=0 / bframes=8 / b_pyramid=2 / b_adapt=2 / b_bias=0 / direct=1 / weightb=1 / open_gop=0 / weightp=2 / keyint=250 / keyint_min=23 / scenecut=40 / intra_refresh=0 / rc=crf / mbtree=0 / crf=17.5 / qcomp=0.60 / qpmin=0 / qpmax=69 / qpstep=4 / ip_ratio=1.40 / pb_ratio=1.30 / aq=2:1.00
Язык                                     : English
Default                                  : Да
Forced                                   : Нет
Аудио #1
Идентификатор                            : 2
Формат                                   : AC-3
Формат/Информация                        : Audio Coding 3
Расширение режима                        : CM (complete main)
Параметр Endianness формата              : Big
Идентификатор кодека                     : A_AC3
Продолжительность                        : 1 ч. 57 м.
Вид битрейта                             : Постоянный
Битрейт                                  : 640 Кбит/сек
Каналы                                   : 6 каналов
Расположение каналов                     : Front: L C R, Side: L R, LFE
Частота                                  : 48,0 КГц
Битовая глубина                          : 16 бит
Метод сжатия                             : С потерями
Размер потока                            : 538 Мбайт (10%)
Заголовок                                : DUB Blu-ray CEE
Язык                                     : Russian
Default                                  : Да
Forced                                   : Нет
Аудио #2
Идентификатор                            : 3
Формат                                   : AC-3
Формат/Информация                        : Audio Coding 3
Расширение режима                        : CM (complete main)
Параметр Endianness формата              : Big
Идентификатор кодека                     : A_AC3
Продолжительность                        : 1 ч. 57 м.
Вид битрейта                             : Постоянный
Битрейт                                  : 448 Кбит/сек
Каналы                                   : 6 каналов
Расположение каналов                     : Front: L C R, Side: L R, LFE
Частота                                  : 48,0 КГц
Битовая глубина                          : 16 бит
Метод сжатия                             : С потерями
Размер потока                            : 377 Мбайт (7%)
Заголовок                                : Tycoon-Studio
Язык                                     : Russian
Default                                  : Нет
Forced                                   : Нет
Аудио #3
Идентификатор                            : 4
Формат                                   : AC-3
Формат/Информация                        : Audio Coding 3
Расширение режима                        : CM (complete main)
Параметр Endianness формата              : Big
Идентификатор кодека                     : A_AC3
Продолжительность                        : 1 ч. 57 м.
Вид битрейта                             : Постоянный
Битрейт                                  : 448 Кбит/сек
Каналы                                   : 6 каналов
Расположение каналов                     : Front: L C R, Side: L R, LFE
Частота                                  : 48,0 КГц
Битовая глубина                          : 16 бит
Метод сжатия                             : С потерями
Размер потока                            : 377 Мбайт (7%)
Заголовок                                : Kinomania
Язык                                     : Russian
Default                                  : Нет
Forced                                   : Нет
Аудио #4
Идентификатор                            : 5
Формат                                   : AC-3
Формат/Информация                        : Audio Coding 3
Расширение режима                        : CM (complete main)
Параметр Endianness формата              : Big
Идентификатор кодека                     : A_AC3
Продолжительность                        : 1 ч. 57 м.
Вид битрейта                             : Постоянный
Битрейт                                  : 640 Кбит/сек
Каналы                                   : 6 каналов
Расположение каналов                     : Front: L C R, Side: L R, LFE
Частота                                  : 48,0 КГц
Битовая глубина                          : 16 бит
Метод сжатия                             : С потерями
Размер потока                            : 538 Мбайт (10%)
Заголовок                                : Gavrilov
Язык                                     : Russian
Default                                  : Нет
Forced                                   : Нет
Аудио #5
Идентификатор                            : 10
Формат                                   : AC-3
Формат/Информация                        : Audio Coding 3
Расширение режима                        : CM (complete main)
Параметр Endianness формата              : Big
Идентификатор кодека                     : A_AC3
Продолжительность                        : 1 ч. 57 м.
Вид битрейта                             : Постоянный
Битрейт                                  : 640 Кбит/сек
Каналы                                   : 6 каналов
Расположение каналов                     : Front: L C R, Side: L R, LFE
Частота                                  : 48,0 КГц
Битовая глубина                          : 16 бит
Метод сжатия                             : С потерями
Размер потока                            : 538 Мбайт (10%)
Язык                                     : English
Default                                  : Нет
Forced                                   : Нет
Текст #1
Идентификатор                            : 6
Формат                                   : UTF-8
Идентификатор кодека                     : S_TEXT/UTF8
Идентификатор кодека/Информация          : UTF-8 Plain Text
Заголовок                                : Blu-ray CEE
Язык                                     : Russian
Default                                  : Нет
Forced                                   : Нет
Текст #2
Идентификатор                            : 7
Формат                                   : UTF-8
Идентификатор кодека                     : S_TEXT/UTF8
Идентификатор кодека/Информация          : UTF-8 Plain Text
Заголовок                                : Tycoon
Язык                                     : Russian
Default                                  : Нет
Forced                                   : Нет
Текст #3
Идентификатор                            : 8
Формат                                   : UTF-8
Идентификатор кодека                     : S_TEXT/UTF8
Идентификатор кодека/Информация          : UTF-8 Plain Text
Заголовок                                : Blu-ray CEE
Язык                                     : Ukrainian
Default                                  : Нет
Forced                                   : Нет
Текст #4
Идентификатор                            : 9
Формат                                   : UTF-8
Идентификатор кодека                     : S_TEXT/UTF8
Идентификатор кодека/Информация          : UTF-8 Plain Text
Язык                                     : English
Default                                  : Нет
Forced                                   : Нет
Меню
00:00:00.000                             : en:00:00:00.000
00:02:58.178                             : en:00:02:58.178
00:04:31.980                             : en:00:04:31.980
00:07:25.111                             : en:00:07:25.111
00:11:18.261                             : en:00:11:18.261
00:12:58.569                             : en:00:12:58.569
00:16:58.184                             : en:00:16:58.184
00:22:38.816                             : en:00:22:38.816
00:25:04.878                             : en:00:25:04.878
00:27:58.343                             : en:00:27:58.343
00:30:21.486                             : en:00:30:21.486
00:36:19.177                             : en:00:36:19.177
00:41:30.321                             : en:00:41:30.321
00:42:24.000                             : en:00:42:24.000
00:45:56.337                             : en:00:45:56.337
00:48:44.463                             : en:00:48:44.463
00:55:18.899                             : en:00:55:18.899
00:57:27.277                             : en:00:57:27.277
00:59:44.998                             : en:00:59:44.998
01:01:49.414                             : en:01:01:49.414
01:03:16.001                             : en:01:03:16.001
01:07:44.394                             : en:01:07:44.394
01:12:39.522                             : en:01:12:39.522
01:16:13.527                             : en:01:16:13.527
01:20:12.474                             : en:01:20:12.474
01:22:34.533                             : en:01:22:34.533
01:27:07.514                             : en:01:27:07.514
01:28:45.237                             : en:01:28:45.237
01:34:02.220                             : en:01:34:02.220
01:36:54.308                             : en:01:36:54.308
01:41:12.316                             : en:01:41:12.316
01:42:37.276                             : en:01:42:37.276
01:44:31.807                             : en:01:44:31.807
01:45:56.267                             : en:01:45:56.267
01:49:04.496                             : en:01:49:04.496
01:52:21.735                             : en:01:52:21.735
Скриншоты:
Время раздачи: 24/7 (до 10 скачавших)
Яндекс.Метрика
Рейтинг@Mail.ru