Третье измерение ада / Дьявольский стул / The Devil's Chair (2007) WEB-DLRip

 

Создавать темы 13-Май-2014 05:12

-Третье измерение ада / Дьявольский стул / The Devil's Chair (2007) WEB-DLRip- Год выпуска: 2007
Жанр: Ужасы, Триллер, Фантастика
Описание фильма:
Праздношатающийся наркодиллер Ник Уэст приглашает свою подружку Сэмми провести время «под кайфом» в заброшенном доме. Исследуя помещение, они натыкаются на странное устройство — нечто среднее между электрическим стулом и садистской машиной идолопоклонников — которое превращает их наркотическую эйфорию в предсмертную агонию. Механизм! Липкая жижа бордового цвета с сладковатым запахом повсюду!
Режиссер: Адам Мэйсон
Актеры: Эндрю Ховард, Полли Браун, Оливия Хилл, Надя Брэнд, Эрик М. Брейман, Гари Маккэй, Дэвид Гант, Луиз Гриффитс, Мэтт Берри
Продолжительность: 01:30:45
Качество видео: WEB-DLRip
Перевод: Многоголосый закадровый
Автор перевода: Лицензия
Релиз группа: Deadmauvlad

Дата мировой премьеры: 12 сентября 2007
Дата выхода DVD релиза: 23 октября 2008
Видеокодек: Xvid
Битрейт видео: ~1902 kbps
Размер кадра: 720x400
Аудиокодек: AC3 5.1
Битрейт аудио: 384 kb/s

MI

Общее
Полное имя                               : D:\Рипы выкладка [Deadmauvlad]\Рипы готовые\The.Devil's.Chair.2007.WEB-DLRip.MVO.Deadmauvlad.avi
Формат                                   : AVI
Формат/Информация                        : Audio Video Interleave
Размер файла                             : 1,46 Гбайт
Продолжительность                        : 1 ч. 30 м.
Общий поток                              : 2295 Кбит/сек
Название фильма                          : The.Devil's.Chair.2007.WEB-DLRip.Rus.Deadmauvlad
Режиссёр                                 : Deadmauvlad
Жанр                                     : Ужасы, Триллер
Программа кодирования                    : VirtualDubMod 1.5.10.3 | [url=http://www.virtualdub-fr.org]www.virtualdub-fr.org[/url] || (build 2550/release)
Видео
Идентификатор                            : 0
Формат                                   : MPEG-4 Visual
Профиль формата                          : Advanced [email protected]
Параметр BVOP формата                    : 1
Параметр QPel формата                    : Нет
Параметр GMC формата                     : Без точки перехода
Параметр матрицы формата                 : Выборочная
Идентификатор кодека                     : XVID
Идентификатор кодека/Подсказка           : XviD
Продолжительность                        : 1 ч. 30 м.
Битрейт                                  : 1902 Кбит/сек
Ширина                                   : 720 пикселей
Высота                                   : 400 пикселей
Соотношение сторон                       : 16:9
Частота кадров                           : 23,976 кадра/сек
Цветовое пространство                    : YUV
Субдискретизация насыщенности            : 4:2:0
Битовая глубина                          : 8 бит
Тип развёртки                            : Прогрессивная
Метод сжатия                             : С потерями
Бит/(Пиксели*Кадры)                      : 0.275
Размер потока                            : 1,21 Гбайт (83%)
Библиотека кодирования                   : XviD 73
Аудио
Идентификатор                            : 1
Формат                                   : AC-3
Формат/Информация                        : Audio Coding 3
Расширение режима                        : CM (complete main)
Параметр Endianness формата              : Big
Идентификатор кодека                     : 2000
Продолжительность                        : 1 ч. 30 м.
Вид битрейта                             : Постоянный
Битрейт                                  : 384 Кбит/сек
Каналы                                   : 6 каналов
Расположение каналов                     : Front: L C R, Side: L R, LFE
Частота                                  : 48,0 КГц
Битовая глубина                          : 16 бит
Метод сжатия                             : С потерями
Размер потока                            : 249 Мбайт (17%)
Выравнивание                             : Разделение по промежуткам
Продолжительность промежутка             : 42  мс. (1,00 видеокадр)
Время предзагрузки промежутка            : 500  мс.

Рецензия, отзыв о фильме

Неплохой хоррор с неожиданным поворотом сюжета.
Неожиданно мощный малобюджетный британский ужастик о мелком наркоторговце, проведшего несколько лет в психиатрической лечебнице (его подозревали в убийстве его подружки, которая бесследно пропала, придя вместе с подозреваемым в заброшенную больницу). Но доказательств не нашлось и глав. героя выпускают на поруки профессора психиатрии, который вместе с тремя своими студентами привозит его на место происшествия. И это, как не трудно догадаться, была бо-о-ольшая ошибка.
Я помню, еще года два назад посмотрел трейлер и был крайне впечатлен — часто ли бывает, что вас может напугать трейлер фильма? Невероятно, но факт — меня он напугал. И кино тоже не подвело — нет, фильм не страшный в полном смысле этого слова, но сама идея поворота сюжета на 180 градусов по прошествии 3/4 хронометража приятно удивила. До определенного момента я был уверен, что смотрю обычный мистический хоррор — неплохой, атмосферный, местами жутковатый, с лужами крови и артериальными фонтанами, с параллельным миром и обитающим там склизким монстром с кучей хентайных тентаклей щупалец. И тут — бум! А на самом-то деле… Ну, не буду спойлить, но замечу, что твист этот не был бы таким неожиданным, если б не полу-трэшевая стилистика в которой была снята большая часть фильма — это же не Найт Шьямалан, в фильмах которого неожиданную концовку ждешь, заранее перебирая в уме все возможные максимально нестандартные варианты, это кино про отвратительных монстров из ада, где сюжет должен по всем правилам быть прямым как стальной лом на морозе. Потому и застает врасплох резкий переход к совсем другому жанру…
А еще мне понравился не столь часто используемый в кино прием со стоп-кадрами и комментариями главного героя — его циничные реплики были как нельзя к месту.
Скриншоты
Время раздачи: до появления первых скачавших
Яндекс.Метрика
Рейтинг@Mail.ru