Va-банк / Runner Runner (Брэд Фурман / Brad Furman) [2013 г., триллер, драма, криминал, BDRip, 720p] Dub (Rus, Ukr) + Original (Eng) + Sub (Rus, Ukr, Eng)

 

Создавать темы 11-Май-2014 21:19

-Va-банк / Runner Runner-- Производство: США
Год выпуска: 2013 г.
Жанр: триллер, драма, криминал
Продолжительность: 01:31:31
Перевод: Профессиональный (полное дублирование) русский, украинский
Оригинальный аудиопоток: английский
Режиссер: Брэд Фурман / Brad Furman-В ролях: Джастин Тимберлэйк (Richie Furst), Бен Аффлек (Ivan Block), Джемма Артертон (Rebecca Shafran), Энтони Маки (Agent Shavers), Майкл Эспер (Billy «Pet» Petricoff), Оливер Купер (Andrew Cronin), Кристиан Джордж (Wilson), Юл Васкез (Delegate Herrera), Джон Хёрд (Harry Furst), Джеймс Молина (Esteban), Луис Ломбарди (Archie), Винсент Лареска (Sergeant Barrancas)-Описание: Чтобы оплачивать учёбу в колледже, Ричи погружается в мир азартных игр онлайн. Когда удача изменяет ему, он отправляется на Коста-Рику, чтобы помериться силами с настоящим асом игрового бизнеса. Тот видит в Ричи родственную душу и вводит его в свою игру. Но когда степень опасности возрастает, а ставки достигают невероятных высот, Ричи вдруг отчётливо понимает, что его новый босс вот-вот совершит непоправимое, и пытается поменяться с ним ролями.-Качество видео: BDRip
Контейнер: MKV
Стандарт разрешения: 720p
Видео кодек: H.264
Аудио кодек: DTS, AC3
Видео: AVC| 1280x534 (2.40:1)| 8500 kbps| 23,976 fps| 0,519 bpp
Аудио: Russian | DTS | 5.1 | 48 kHz | 755 kbps | 24 bit |BD CEE|
Аудио #2: Ukrainian | AC3 | 5.1 | 48 kHz | 448 kbps | 16 bit |BD CEE|
Аудио #3: English | DTS | 5.1 | 48 kHz | 1510 kbps | 24 bit
Cубтитры: русские, украинские, английские (отключаемые)

Скриншоты

MediaInfo

Формат : Matroska
Версия формата : Version 2
Размер файла : 7,16 Гбайт
Продолжительность : 1 ч. 31 м.
Общий поток : 11,8 Мбит/сек
Дата кодирования : UTC 2014-01-24 01:31:59
Программа кодирования : mkvmerge v6.7.0 ('Back to the Ground') 32bit built on Jan 8 2014 15:03:17
Библиотека кодирования : libebml v1.3.0 + libmatroska v1.4.1
Видео
Идентификатор : 1
Формат : AVC
Формат/Информация : Advanced Video Codec
Профиль формата : [email protected]
Параметр CABAC формата : Да
Параметр ReFrames формата : 12 кадров
Идентификатор кодека : V_MPEG4/ISO/AVC
Продолжительность : 1 ч. 31 м.
Битрейт : 8500 Кбит/сек
Ширина : 1280 пикселей
Высота : 534 пикселя
Соотношение сторон : 2,40:1
Режим частоты кадров : Постоянный
Частота кадров : 23,976 кадра/сек
Цветовое пространство : YUV
Субдискретизация насыщенности : 4:2:0
Битовая глубина : 8 бит
Тип развёртки : Прогрессивная
Бит/(Пиксели*Кадры) : 0.519
Размер потока : 5,27 Гбайт (70%)
Заголовок : Runner Runner 2013
Библиотека кодирования : x264 core 133 r2334 a3ac64b
Настройки программы : cabac=1 / ref=12 / deblock=1:-3:-3 / analyse=0x3:0x113 / me=umh / subme=9 / psy=1 / psy_rd=1.05:0.00 / mixed_ref=1 / me_range=16 / chroma_me=1 / trellis=2 / 8x8dct=1 / cqm=0 / deadzone=21,11 / fast_pskip=0 / chroma_qp_offset=-2 / threads=3 / lookahead_threads=1 / sliced_threads=0 / nr=0 / decimate=0 / interlaced=0 / bluray_compat=0 / constrained_intra=0 / bframes=10 / b_pyramid=2 / b_adapt=2 / b_bias=0 / direct=3 / weightb=1 / open_gop=0 / weightp=2 / keyint=250 / keyint_min=23 / scenecut=40 / intra_refresh=0 / rc=2pass / mbtree=0 / bitrate=8500 / ratetol=1.0 / qcomp=0.60 / qpmin=0 / qpmax=69 / qpstep=4 / cplxblur=20.0 / qblur=0.5 / ip_ratio=1.40 / pb_ratio=1.30 / aq=1:0.60
Язык : English
Default : Да
Forced : Нет
Аудио #1
Идентификатор : 2
Формат : DTS
Формат/Информация : Digital Theater Systems
Режим : 16
Параметр Endianness формата : Big
Идентификатор кодека : A_DTS
Продолжительность : 1 ч. 31 м.
Вид битрейта : Постоянный
Битрейт : 768 Кбит/сек
Каналы : 6 каналов
Расположение каналов : Front: L C R, Side: L R, LFE
Частота : 48,0 КГц
Битовая глубина : 24 бит
Метод сжатия : С потерями
Размер потока : 503 Мбайт (6%)
Язык : Russian
Default : Да
Forced : Нет
Аудио #2
Идентификатор : 4
Формат : AC-3
Формат/Информация : Audio Coding 3
Расширение режима : CM (complete main)
Параметр Endianness формата : Big
Идентификатор кодека : A_AC3
Продолжительность : 1 ч. 31 м.
Вид битрейта : Постоянный
Битрейт : 448 Кбит/сек
Каналы : 6 каналов
Расположение каналов : Front: L C R, Side: L R, LFE
Частота : 48,0 КГц
Битовая глубина : 16 бит
Метод сжатия : С потерями
Размер потока : 293 Мбайт (4%)
Язык : Ukrainian
Default : Нет
Forced : Нет
Аудио #3
Идентификатор : 5
Формат : DTS
Формат/Информация : Digital Theater Systems
Режим : 16
Параметр Endianness формата : Big
Идентификатор кодека : A_DTS
Продолжительность : 1 ч. 31 м.
Вид битрейта : Постоянный
Битрейт : 1509 Кбит/сек
Каналы : 6 каналов
Расположение каналов : Front: L C R, Side: L R, LFE
Частота : 48,0 КГц
Битовая глубина : 24 бит
Метод сжатия : С потерями
Размер потока : 988 Мбайт (13%)
Язык : English
Default : Нет
Forced : Нет
Текст #1
Идентификатор : 6
Формат : UTF-8
Идентификатор кодека : S_TEXT/UTF8
Идентификатор кодека/Информация : UTF-8 Plain Text
Язык : Russian
Default : Да
Forced : Нет
Текст #2
Идентификатор : 7
Формат : UTF-8
Идентификатор кодека : S_TEXT/UTF8
Идентификатор кодека/Информация : UTF-8 Plain Text
Язык : Russian
Default : Нет
Forced : Нет
Текст #3
Идентификатор : 8
Формат : UTF-8
Идентификатор кодека : S_TEXT/UTF8
Идентификатор кодека/Информация : UTF-8 Plain Text
Язык : Ukrainian
Default : Нет
Forced : Нет
Текст #4
Идентификатор : 9
Формат : UTF-8
Идентификатор кодека : S_TEXT/UTF8
Идентификатор кодека/Информация : UTF-8 Plain Text
Язык : English
Default : Нет
Forced : Нет
Текст #5
Идентификатор : 10
Формат : UTF-8
Идентификатор кодека : S_TEXT/UTF8
Идентификатор кодека/Информация : UTF-8 Plain Text
Язык : English
Default : Нет
Forced : Нет
Текст #6
Идентификатор : 11
Формат : UTF-8
Идентификатор кодека : S_TEXT/UTF8
Идентификатор кодека/Информация : UTF-8 Plain Text
Язык : English
Default : Нет
Forced : Нет
Меню
00:00:00.000 : en:00:00:00.000
00:03:08.814 : en:00:03:08.814
00:05:47.973 : en:00:05:47.973
00:08:43.857 : en:00:08:43.857
00:11:16.384 : en:00:11:16.384
00:13:34.647 : en:00:13:34.647
00:15:13.913 : en:00:15:13.913
00:16:55.765 : en:00:16:55.765
00:19:46.602 : en:00:19:46.602
00:24:24.505 : en:00:24:24.505
00:27:07.334 : en:00:27:07.334
00:31:01.943 : en:00:31:01.943
00:32:59.811 : en:00:32:59.811
00:36:30.605 : en:00:36:30.605
00:38:40.026 : en:00:38:40.026
00:43:36.906 : en:00:43:36.906
00:46:38.087 : en:00:46:38.087
00:48:37.706 : en:00:48:37.706
00:53:03.555 : en:00:53:03.555
00:54:38.609 : en:00:54:38.609
00:57:18.644 : en:00:57:18.644
01:00:38.885 : en:01:00:38.885
01:03:17.669 : en:01:03:17.669
01:08:48.833 : en:01:08:48.833
01:13:04.797 : en:01:13:04.797
01:16:45.935 : en:01:16:45.935
01:21:22.961 : en:01:21:22.961
01:25:32.502 : en:01:25:32.502
Яндекс.Метрика
Рейтинг@Mail.ru