[ Сегодня на трекере фрилич! Идет свободное скачивание без начисления Download ]

Паранойя / Paranoia (Роберт Лукетич / Robert Luketic) [2013, США, Франция, триллер, драма, BDRip 1080p] Dub + Original (Eng) + Sub (Rus, Eng)

 

Создавать темы 11-Май-2014 04:29

Паранойя / Paranoia
Страна: США, Франция
Производство: Demarest Films, EMJAG Productions, Gaumont, IM Global, Kintop Pictures, Reliance Entertainment
Жанр: триллер, драма
Год выпуска: 2013
Продолжительность: 01:46:06
Перевод: Профессиональный (дублированный) BD RUS
Оригинальная аудиодорожка: английская
Cубтитры: русские (Voronine, MartinaG), английские (SDH, SDH-Colored)
Режиссер: Роберт Лукетич / Robert Luketic
В ролях: Лайэм Хемсворт, Гэри Олдман, Эмбер Херд, Харрисон Форд, Лукас Тилл, Эмбет Дэвидц, Джулиан МакМэхон, Джош Холлоуэй, Ричард Дрейфус, Анжела Сарафян, Хейли Финнегэн, Кевин Килнер, Чарли Хофхеймер
Описание: Адам Кэссиди — типичный «белый воротничок», пытающийся преуспеть на должности молодого специалиста в крупной телекоммуникационной корпорации. После одной весьма дорогостоящей ошибки он сталкивается лицом к лицу с безжалостным президентом компании, который соглашается не увольнять провинившегося при одном условии: Адам должен шпионить за старым наставником своего босса…
Качество видео: BDRip 1080p
Исходник: PARANOIA_2013_REMUX_HDCLUB
Контейнер: MKV
Видео: MPEG-4 AVC, 9586 Kbps , 1920x800 (2.40:1), 23.976 fps, 0.260 bit/pixel
Аудио 1: русский (DTS, 6 ch, 48 kHz, 1510 kbps) Dub[BD RUS]
Аудио 2: английский (DTS, 6 ch, 48 kHz, 1510 kbps) Original
Формат субтитров: softsub (SRT)
Главы: есть

MediaInfo

General
Unique ID : 177498784090479955968905945623151034006 (0x858905B7E454D02E8A63E026CDBCBE96)
Complete name : E:\Paranoia.2013.x264.BDRip.1080p.fanatus.mkv
Format : Matroska
Format version : Version 2
File size : 9.33 GiB
Duration : 1h 46mn
Overall bit rate : 12.6 Mbps
Movie name : Paranoia (2013) - fanatus
Encoded date : UTC 2014-05-10 13:52:15
Writing application : mkvmerge v3.4.0 ('Rapunzel') сборка от May 15 2010 09:38:20
Writing library : libebml v0.8.0 + libmatroska v0.9.0
Video
ID : 1
Format : AVC
Format/Info : Advanced Video Codec
Format profile : [email protected]
Format settings, CABAC : Yes
Format settings, ReFrames : 5 frames
Codec ID : V_MPEG4/ISO/AVC
Duration : 1h 46mn
Bit rate : 9 586 Kbps
Width : 1 920 pixels
Height : 800 pixels
Display aspect ratio : 2.40:1
Frame rate : 23.976 fps
Color space : YUV
Chroma subsampling : 4:2:0
Bit depth : 8 bits
Scan type : Progressive
Bits/(Pixel*Frame) : 0.260
Stream size : 6.91 GiB (74%)
Title : Paranoia (2013) BDRip (1080p)
Writing library : x264 core 142 r2409+42 04be48a tMod [[email protected] X86]
Encoding settings : cabac=1 / ref=5 / deblock=1:-3:-3 / analyse=0x3:0x113 / me=tesa / subme=11 / psy=1 / fade_compensate=0.00 / psy_rd=1.03:0.00 / mixed_ref=1 / me_range=64 / chroma_me=1 / trellis=2 / 8x8dct=1 / cqm=0 / deadzone=21,11 / fast_pskip=0 / chroma_qp_offset=-2 / threads=16 / lookahead_threads=2 / sliced_threads=0 / nr=0 / decimate=1 / interlaced=0 / bluray_compat=0 / constrained_intra=0 / fgo=0 / bframes=9 / b_pyramid=2 / b_adapt=2 / b_bias=0 / direct=3 / weightb=1 / open_gop=0 / weightp=2 / keyint=240 / keyint_min=23 / scenecut=40 / intra_refresh=0 / rc_lookahead=240 / rc=2pass / mbtree=1 / bitrate=9586 / ratetol=1.0 / qcomp=0.70 / qpmin=0:0:0 / qpmax=69:69:69 / qpstep=4 / cplxblur=20.0 / qblur=0.5 / vbv_maxrate=50000 / vbv_bufsize=62500 / nal_hrd=none / filler=0 / ip_ratio=1.40 / aq=4:0.90 / aq-sensitivity=10.00 / aq-factor=1.00:1.00:1.00 / aq2=0 / aq3=0
Language : English
Default : Yes
Forced : No
Audio #1
ID : 2
Format : DTS
Format/Info : Digital Theater Systems
Codec ID : A_DTS
Duration : 1h 46mn
Bit rate mode : Constant
Bit rate : 1 510 Kbps
Channel(s) : 6 channels
Channel positions : Front: L C R, Side: L R, LFE
Sampling rate : 48.0 KHz
Bit depth : 16 bits
Compression mode : Lossy
Stream size : 1.12 GiB (12%)
Title : Dub (BD RUS)
Language : Russian
Default : Yes
Forced : No
Audio #2
ID : 3
Format : DTS
Format/Info : Digital Theater Systems
Codec ID : A_DTS
Duration : 1h 46mn
Bit rate mode : Constant
Bit rate : 1 510 Kbps
Channel(s) : 6 channels
Channel positions : Front: L C R, Side: L R, LFE
Sampling rate : 48.0 KHz
Bit depth : 24 bits
Compression mode : Lossy
Stream size : 1.12 GiB (12%)
Title : Original
Language : English
Default : No
Forced : No
Text #1
ID : 4
Format : UTF-8
Codec ID : S_TEXT/UTF8
Codec ID/Info : UTF-8 Plain Text
Title : Voronine
Language : Russian
Default : No
Forced : No
Text #2
ID : 5
Format : UTF-8
Codec ID : S_TEXT/UTF8
Codec ID/Info : UTF-8 Plain Text
Title : MartinaG
Language : Russian
Default : No
Forced : No
Text #3
ID : 6
Format : UTF-8
Codec ID : S_TEXT/UTF8
Codec ID/Info : UTF-8 Plain Text
Title : SDH
Language : English
Default : No
Forced : No
Text #4
ID : 7
Format : UTF-8
Codec ID : S_TEXT/UTF8
Codec ID/Info : UTF-8 Plain Text
Title : SDH-Colored
Language : English
Default : No
Forced : No
Menu
00:00:00.000 : en:Chapter 01
00:06:54.204 : en:Chapter 02
00:10:31.838 : en:Chapter 03
00:14:12.600 : en:Chapter 04
00:17:02.395 : en:Chapter 05
00:21:41.008 : en:Chapter 06
00:26:29.921 : en:Chapter 07
00:31:31.847 : en:Chapter 08
00:36:47.578 : en:Chapter 09
00:39:37.500 : en:Chapter 10
00:46:08.930 : en:Chapter 11
00:49:15.327 : en:Chapter 12
00:54:37.898 : en:Chapter 13
00:57:30.237 : en:Chapter 14
00:59:16.510 : en:Chapter 15
01:04:02.546 : en:Chapter 16
01:06:58.430 : en:Chapter 17
01:10:14.960 : en:Chapter 18
01:19:23.759 : en:Chapter 19
01:23:21.078 : en:Chapter 20
01:27:37.502 : en:Chapter 21
01:35:06.617 : en:Chapter 22
01:37:53.367 : en:Chapter 23
01:40:59.051 : en:Chapter 24
01:46:06.109 : en:Chapter 25

x264 [info]

x264 [info]: 1920x800p 1:1 @ 24000/1001 fps (cfr)
x264 [info]: frame I:1272 Avg QP:13.19 size:255628
x264 [info]: frame P:33539 Avg QP:16.46 size: 85274
x264 [info]: frame B:117853 Avg QP:18.04 size: 37604
x264 [info]: consecutive B-frames: 2.2% 4.0% 6.6% 21.6% 19.4% 30.1% 8.1% 6.0% 1.0% 1.0%
x264 [info]: mb I I16..4: 7.7% 69.8% 22.4%
x264 [info]: mb P I16..4: 0.8% 8.5% 1.1% P16..4: 30.0% 36.6% 14.4% 0.0% 0.0% skip: 8.7%
x264 [info]: mb B I16..4: 0.0% 1.0% 0.1% B16..8: 36.6% 22.0% 4.5% direct: 6.4% skip:29.2% L0:44.5% L1:44.5% BI:10.9%
x264 [info]: 8x8 transform intra:80.1% inter:50.2%
x264 [info]: direct mvs spatial:98.8% temporal:1.2%
x264 [info]: coded y,uvDC,uvAC intra: 89.6% 88.0% 76.2% inter: 33.8% 30.0% 10.0%
x264 [info]: i16 v,h,dc,p: 38% 16% 6% 41%
x264 [info]: i8 v,h,dc,ddl,ddr,vr,hd,vl,hu: 10% 9% 10% 10% 13% 13% 12% 12% 12%
x264 [info]: i4 v,h,dc,ddl,ddr,vr,hd,vl,hu: 13% 16% 8% 7% 12% 11% 12% 9% 12%
x264 [info]: i8c dc,h,v,p: 50% 18% 16% 16%
x264 [info]: Weighted P-Frames: Y:2.0% UV:1.1%
x264 [info]: ref P L0: 52.8% 8.0% 22.6% 8.3% 7.8% 0.6% 0.0%
x264 [info]: ref B L0: 79.5% 14.9% 4.5% 1.2%
x264 [info]: ref B L1: 92.9% 7.1%
x264 [info]: kb/s:9570.00
x264 [info]: encoded 152664 frames, 0.7446 fps, 9570.00 kb/s, 7264.1 MB
x264 [info]: ended at Sun May 04 23:08:45 2014
x264 [info]: encoding duration 56:57:11

Скриншоты


Яндекс.Метрика
Рейтинг@Mail.ru