Её сердце / A Mighty Heart (Майкл Уинтерботтом / Michael Winterbottom) [2007 г., триллер, драма, военный, биография, история, BDRip] DVO [Jolly Roger]

 

Создавать темы 08-Май-2014 14:52

-Её сердце / A Mighty Heart-- Производство: США, Великобритания
Год выпуска: 2007 г.
Жанр: триллер, драма, военный, биография, история
Продолжительность: 01:47:52
Перевод: Профессиональный (двухголосый, закадровый)-Режиссер: Майкл Уинтерботтом / Michael Winterbottom-В ролях: Анджелина Джоли, Дэн Футтерман, Ирфан Кхан, Арчи Панджаби, Уилл Пэттон, Дэнис О’Хэйр, Мохаммед Афзал, Муштак Кхан, Дауд Кхан, Телаль Сэйид-Описание: 23 января 2002 года жизнь журналистки Марианы Перл резко изменилась. Ее муж Дэниел Перл, руководитель южно-азиатского бюро нью-йоркского издания Wall Street Journal, занимавшийся в Пакистане поиском материала для статьи о террористе Ричарде Риде, бесследно исчез.
Находившаяся на шестом месяце беременности, Мариана отчаянно пыталась его разыскать. Однако вскоре выяснилось, что он был захвачен боевиками, объявлен израильским шпионом и обезглавлен. Видеозапись казни бандиты передали в СМИ…
-- --Качество видео: BDRip
Контейнер: AVI
Видео кодек: XviD
Аудио кодек: AC3
Видео: 720x304, 23.976 fps, 1476 kbps avg, 0.281 bit/pixel
Аудио: 48 kHz, AC3 Dolby Digital, 3/2 (L,C,R,l,r) + LFE ch, 448 kbps
Cубтитры: отсутствуют-

Media Info

Общее
Полное имя : C:\Users\Ромик\Documents\[R.G. Jolly Roger]\Её сердце\Eyo.Serdce.2007.BDRip.JRG.avi
Формат : AVI
Формат/Информация : Audio Video Interleave
Размер файла : 1,46 Гбайт
Продолжительность : 1 ч. 47 м.
Общий поток : 1933 Кбит/сек
Название фильма : Eyo.Serdce.2007.BDRip.JRG.[pirat.ca]
Режиссёр : R.G. Jolly Roger
Программа кодирования : VirtualDubMod 1.5.10.2 (build 2540/release)
Примечание : http://pirat.ca
Видео
Идентификатор : 0
Формат : MPEG-4 Visual
Профиль формата : Advanced [email protected]
Параметр BVOP формата : 2
Параметр QPel формата : Нет
Параметр GMC формата : Без точки перехода
Параметр матрицы формата : Default (MPEG)
Идентификатор кодека : XVID
Идентификатор кодека/Подсказка : XviD
Продолжительность : 1 ч. 47 м.
Битрейт : 1476 Кбит/сек
Ширина : 720 пикселей
Высота : 304 пикселя
Соотношение сторон : 2,35:1
Частота кадров : 23,976 кадра/сек
Цветовое пространство : YUV
Субдискретизация насыщенности : 4:2:0
Битовая глубина : 8 бит
Тип развёртки : Прогрессивная
Метод сжатия : С потерями
Бит/(Пиксели*Кадры) : 0.281
Размер потока : 1,11 Гбайт (76%)
Библиотека кодирования : XviD 1.2.0.dev47 (UTC 2006-11-01)
Аудио
Идентификатор : 1
Формат : AC-3
Формат/Информация : Audio Coding 3
Расширение режима : CM (complete main)
Параметр Endianness формата : Big
Идентификатор кодека : 2000
Продолжительность : 1 ч. 47 м.
Вид битрейта : Постоянный
Битрейт : 448 Кбит/сек
Каналы : 6 каналов
Расположение каналов : Front: L C R, Side: L R, LFE
Частота : 48,0 КГц
Битовая глубина : 16 бит
Метод сжатия : С потерями
Размер потока : 346 Мбайт (23%)
Выравнивание : Разделение по промежуткам
Продолжительность промежутка : 42 мс. (1,00 видеокадр)
Время предзагрузки промежутка : 500 мс.
-

Скриншоты

-
Яндекс.Метрика
Рейтинг@Mail.ru