[ Сегодня на трекере фрилич! Идет свободное скачивание без начисления Download ]

3 дня на убийство ( Расширенная версия) / 3 Days to Kill (EXTENDED Cut) (МакДжи / McG) [2014 г., боевик, триллер, драма, криминал, HDRip] Dub (TS)

 

Создавать темы 07-Май-2014 15:32

-3 дня на убийство / 3 Days to Kill-- Производство: CША, 3DTK, EuropaCorp, Feelgood Entertainment, Paradise MGN, Relativity Media, Wonderland Sound and Vision
Год выпуска: 2014 г.
Жанр: боевик, триллер, драма, криминал
Продолжительность: 02:02:18
Мировая премьера: 12 февраля 2014
Российская премьера: 10 апреля 2014, «Парадиз»
Дата выхода DVD: 10 июня 2014, «Парадиз / Активижен»
Перевод: Профессиональный (полное дублирование) [TS]
Режиссер: МакДжи / McG-В ролях: Кевин Костнер, Эмбер Хёрд, Хейли Стайнфелд, Конни Нильсен, Томас Лемаркус, Рихард Заммель, Марк Андреони, Бруно Риччи, Йонас Блоке, Эрик Эбони-Описание: Умирающему агенту ЦРУ предлагают экспериментальное лекарство, которое может спасти его жизнь, в обмен на одно последнее задание…-Качество видео: HDRip
Контейнер: AVI
Видео кодек: XviD
Аудио кодек: AC3
Видео: 720x304 (2.37:1),23.976 fps , XviD build 50 ~1463 kbps avg, 0.272 bit/pixel
Аудио: 48 kHz, AC3 Dolby Digital, 2/0 (L,R) ch, ~128 kbps Dub (TS)
Cубтитры: отсутствуют

Media Info

General
Complete name : W:\3.days.t0.k1ll.2014.EXTENDED.Dt.HDRip.1400Mb.avi
Format : AVI
Format/Info : Audio Video Interleave
File size : 1.37 GiB
Duration : 2h 2mn
Overall bit rate : 1 600 Kbps
Writing application : VirtualDubMod 1.5.10.2 (build 2540/release)
Writing library : VirtualDubMod build 2540/release
Video
ID : 0
Format : MPEG-4 Visual
Format profile : Advanced [email protected]
Format settings, BVOP : Yes
Format settings, QPel : No
Format settings, GMC : No warppoints
Format settings, Matrix : Custom
Codec ID : XVID
Codec ID/Hint : XviD
Duration : 2h 2mn
Bit rate : 1 463 Kbps
Width : 720 pixels
Height : 304 pixels
Display aspect ratio : 2.35:1
Frame rate : 23.976 fps
Color space : YUV
Chroma subsampling : 4:2:0
Bit depth : 8 bits
Scan type : Progressive
Bits/(Pixel*Frame) : 0.279
Stream size : 1.25 GiB (91%)
Writing library : XviD 1.2.1 (UTC 2008-12-04)
Audio
ID : 1
Format : AC-3
Format/Info : Audio Coding 3
Mode extension : CM (complete main)
Codec ID : 2000
Duration : 2h 2mn
Bit rate mode : Constant
Bit rate : 128 Kbps
Channel(s) : 2 channels
Channel positions : Front: L R
Sampling rate : 48.0 KHz
Bit depth : 16 bits
Stream size : 112 MiB (8%)
Alignment : Split accross interleaves
Interleave, duration : 42 ms (1.00 video frame)
Interleave, preload duration : 500 ms

Скриншоты

Яндекс.Метрика
Рейтинг@Mail.ru