[ Сегодня на трекере фрилич! Идет свободное скачивание без начисления Download ]

Китайская головоломка / Casse-tête chinois / Chinese Puzzle (2013) HDRip [Line]

 

Создавать темы 07-Май-2014 13:57

-Китайская головоломка / Casse-tête chinois / Chinese Puzzle (2013) HDRip- Год выпуска: 2013
Производство: Франция
Жанр: Драма, мелодрама, комедия-Режиссер: Седрик Клапиш
Продюсер Седрик Клапиш, Бруно Леви, Рафаэль Бенолье
Актеры: Ромен Дюрис, Одри Тоту, Сесиль Де Франс, Келли Райлли, Сандрин Холт, Флоре Бонавентура, Йохен Хаэгеле, Бенуа Жако, Пабло Мюнье-Жакоб, Марго Мансар-Описание фильма:
Ксавье, покуролесивший в молодости в поисках идеальной женщины, в тридцать с копейками, казалось, успокоился: теперь он женат на англичанке Венди, с которой учился когда-то в барселонском университете, у них двое детей. Но вдруг Венди решила, взяв детей, уехать в Нью-Йорк. Через несколько месяцев и Ксавье последовал за семьей.
Перевод: Дублированный (Line)
Субтитры: Отсутствуют
Рейтинг MPAA: R (лицам до 17 лет обязательно присутствие взрослого)
Возраст: 16+
- -Дата мировой премьеры: 23 августа 2013
Дата российской премьеры: 3 апреля 2014, «Cinema Prestige»
Дата выхода DVD релиза: 13 мая 2014, «CD Land»
-Продолжительность: 01:57:16
Качество видео: HDRip-Видеокодек: XviD
Битрейт видео: ~1849 kbps
Размер кадра: 720x384, 24,000 fps
Аудио #1: AC3, 48.0 KHz, 2 ch, 192 Kbps, CBR (Русский, Дубляж)
Аудио #2: AC3, 48.0 KHz, 6 ch, 448 Kbps, CBR (Французский)-

MediaInfo:

Формат : AVI
Формат/Информация : Audio Video Interleave
Профиль формата : OpenDML
Размер файла : 2,05 Гбайт
Продолжительность : 1 ч. 57 м.
Общий поток : 2507 Кбит/сек
Название фильма : Chinese Puzzle (2013)
Программа кодирования : VirtualDubMod 1.5.10.2 (build 2540/release)
Видео
Идентификатор : 0
Формат : MPEG-4 Visual
Профиль формата : Advanced [email protected]
Параметр BVOP формата : 2
Параметр QPel формата : Нет
Параметр GMC формата : Без точки перехода
Параметр матрицы формата : Default (H.263)
Идентификатор кодека : XVID
Идентификатор кодека/Подсказка : XviD
Продолжительность : 1 ч. 57 м.
Битрейт : 1849 Кбит/сек
Ширина : 720 пикселей
Высота : 384 пикселя
Соотношение сторон : 1,85:1
Частота кадров : 24,000 кадра/сек
Цветовое пространство : YUV
Субдискретизация насыщенности : 4:2:0
Битовая глубина : 8 бит
Тип развёртки : Прогрессивная
Метод сжатия : С потерями
Бит/(Пиксели*Кадры) : 0.279
Размер потока : 1,51 Гбайт (74%)
Библиотека кодирования : XviD 1.2.1 (UTC 2008-12-04)
Аудио #1
Идентификатор : 1
Формат : AC-3
Формат/Информация : Audio Coding 3
Расширение режима : CM (complete main)
Параметр Endianness формата : Big
Идентификатор кодека : 2000
Продолжительность : 1 ч. 57 м.
Вид битрейта : Постоянный
Битрейт : 192 Кбит/сек
Каналы : 2 канала
Расположение каналов : Front: L R
Частота : 48,0 КГц
Битовая глубина : 16 бит
Метод сжатия : С потерями
Размер потока : 161 Мбайт (8%)
Выравнивание : Разделение по промежуткам
Продолжительность промежутка : 42 мс. (1,00 видеокадр)
Время предзагрузки промежутка : 500 мс.
Аудио #2
Идентификатор : 2
Формат : AC-3
Формат/Информация : Audio Coding 3
Расширение режима : CM (complete main)
Параметр Endianness формата : Big
Идентификатор кодека : 2000
Продолжительность : 1 ч. 57 м.
Вид битрейта : Постоянный
Битрейт : 448 Кбит/сек
Каналы : 6 каналов
Расположение каналов : Front: L C R, Side: L R, LFE
Частота : 48,0 КГц
Битовая глубина : 16 бит
Метод сжатия : С потерями
Размер потока : 376 Мбайт (18%)
Выравнивание : Разделение по промежуткам
Продолжительность промежутка : 42 мс. (1,00 видеокадр)
Время предзагрузки промежутка : 500 мс.
-

Скриншоты

Яндекс.Метрика
Рейтинг@Mail.ru