[ Сегодня на трекере фрилич! Идет свободное скачивание без начисления Download ]

Джек Райан: Теория хаоса / Jack Ryan: Shadow Recruit (Кеннет Брэна / Kenneth Branagh) [2014 г., боевик, триллер, драма, WEB-DLRip] Dub (TS)

 

Создавать темы 07-Май-2014 02:34

-Джек Райан: Теория хаоса / Jack Ryan: Shadow Recruit-- Производство: США, Buckaroo Entertainment, Di Bonaventura Pictures, Etalon film, Mace Neufeld Productions, Paramount Pictures
Год выпуска: 2014 г.
Жанр: боевик, триллер, драма
Продолжительность: 01:45:48
Мировая премьера: 15 января 2014
Российская премьера: 16 января 2014, «Централ Партнершип»
Дата выхода DVD: 19 мая 2014, «Новый Диск», ...
Дата выхода Blu-Ray: 19 мая 2014, «Новый Диск», ...
Перевод: Профессиональный (полное дублирование) [TS]
Режиссер: Кеннет Брэна / Kenneth Branagh-В ролях: Крис Пайн, Кира Найтли, Кевин Костнер, Кеннет Брана, Колм Фиор, Джемма Чан, Нонсо Анози, Карен Дэвид, Дэвид Пэймер, Ханна Тэйлор-Гордон-Описание: Являющийся финансовым аналитиком Райан переезжает в Москву для работы на некоего миллиардера. И именно этот нувориш обставит дела таким образом, чтобы на Райна пали все подозрения в организации террористического сговора с целью обрушить экономику США. И Джеку не остается ничего иного, как попытаться одновременно очистить свое имя, обезвредить заговор и спасти жену, взятую миллиардером в заложники.-Качество видео: WEB-DLRip
Контейнер: AVI
Видео кодек: XviD
Аудио кодек: AC3
Видео: XviD, 1712 Кбит/с, 720x304 (2.35:1), 23.976 fps, 0.326 bpp
Аудио: Rus: 48 kHz, AC3, 2 ch, 128 Кбит/с Dub (TS)
Cубтитры: отсутствуют

Media Info

General
Complete name : W:\Jack.Ryan.2014..Dt.WEB-DLRip.1400Mb.avi
Format : AVI
Format/Info : Audio Video Interleave
File size : 1.37 GiB
Duration : 1h 45mn
Overall bit rate : 1 849 Kbps
Writing application : VirtualDubMod 1.5.10.2 (build 2540/release)
Writing library : VirtualDubMod build 2540/release
Video
ID : 0
Format : MPEG-4 Visual
Format profile : Advanced [email protected]
Format settings, BVOP : Yes
Format settings, QPel : No
Format settings, GMC : No warppoints
Format settings, Matrix : Custom
Codec ID : XVID
Codec ID/Hint : XviD
Duration : 1h 45mn
Bit rate : 1 712 Kbps
Width : 720 pixels
Height : 304 pixels
Display aspect ratio : 2.35:1
Frame rate : 23.976 fps
Color space : YUV
Chroma subsampling : 4:2:0
Bit depth : 8 bits
Scan type : Progressive
Bits/(Pixel*Frame) : 0.326
Stream size : 1.27 GiB (93%)
Writing library : XviD 1.2.1 (UTC 2008-12-04)
Audio
ID : 1
Format : AC-3
Format/Info : Audio Coding 3
Mode extension : CM (complete main)
Codec ID : 2000
Duration : 1h 45mn
Bit rate mode : Constant
Bit rate : 128 Kbps
Channel(s) : 2 channels
Channel positions : Front: L R
Sampling rate : 48.0 KHz
Bit depth : 16 bits
Stream size : 96.7 MiB (7%)
Alignment : Split accross interleaves
Interleave, duration : 42 ms (1.00 video frame)
Interleave, preload duration : 500 ms

Скриншоты

Яндекс.Метрика
Рейтинг@Mail.ru