(Шансон) Группа Дальний свет - Дискография - 1999-2004, FLAC (image + .cue), lossless

 

Создавать темы 06-Май-2014 17:15

Группа Дальний свет - Дискография- Страна: Россия
Жанр: Шансон
Год выпуска: 1999-2004
Формат: FLAC (image + .cue)
Битрейт аудио: lossless
Продолжительность: 03:25:21
Трэклист:

Пересылочка - 1999


Треклист:
01. Гуляй, братва
02. Чечёточка
03. До дома
04. Слёзы осени
05. А ты любила щеголять
06. Девчоночка
07. Друг
08. Пересылочка
09. Сентябрь
10. Городская манекенщица
11. Кошелёчки, сумочки
12. Напиши мне, браток
13. Повороты
14. Чечёточка (ремикс)

Лог EAC (в режиме Test&Copy)

Exact Audio Copy V0.99 prebeta 4 from 23. January 2008
EAC extraction logfile from 28. October 2012, 16:01
гр.ДАЛЬНИЙ СВЕТ / ПЕРЕСЫЛОЧКА
Used drive  : ASUS    DRW-2014L1   Adapter: 0  ID: 0
Read mode               : Secure
Utilize accurate stream : Yes
Defeat audio cache      : Yes
Make use of C2 pointers : No
Read offset correction                      : 6
Overread into Lead-In and Lead-Out          : No
Fill up missing offset samples with silence : Yes
Delete leading and trailing silent blocks   : No
Null samples used in CRC calculations       : Yes
Used interface                              : Installed external ASPI interface
Used output format              : User Defined Encoder
Selected bitrate                : 128 kBit/s
Quality                         : High
Add ID3 tag                     : No
Command line compressor         : C:\Program Files\Exact Audio Copy\Flac\flac.exe
Additional command line options : -T "DATE=%y" -T "GENRE=%m" -8 -V %s
TOC of the extracted CD
     Track |   Start  |  Length  | Start sector | End sector
    ---------------------------------------------------------
        1  |  0:00.00 |  3:38.11 |         0    |    16360
        2  |  3:38.11 |  3:46.01 |     16361    |    33311
        3  |  7:24.12 |  5:59.70 |     33312    |    60306
        4  | 13:24.07 |  3:42.03 |     60307    |    76959
        5  | 17:06.10 |  3:51.14 |     76960    |    94298
        6  | 20:57.24 |  4:36.65 |     94299    |   115063
        7  | 25:34.14 |  5:16.09 |    115064    |   138772
        8  | 30:50.23 |  5:30.50 |    138773    |   163572
        9  | 36:20.73 |  3:45.30 |    163573    |   180477
       10  | 40:06.28 |  3:50.47 |    180478    |   197774
       11  | 43:57.00 |  3:25.21 |    197775    |   213170
       12  | 47:22.21 |  4:12.28 |    213171    |   232098
       13  | 51:34.49 |  3:26.42 |    232099    |   247590
       14  | 55:01.16 |  4:19.33 |    247591    |   267048
Range status and errors
Selected range
     Filename C:\Users\ГРЕХОВСКИЙ\Desktop\гр.ДАЛЬНИЙ СВЕТ\01. ПЕРЕСЫЛОЧКА - 1999\гр.ДАЛЬНИЙ СВЕТ - ПЕРЕСЫЛОЧКА.wav
     Peak level 98.8 %
     Range quality 100.0 %
     Test CRC 123A0B97
     Copy CRC 123A0B97
     Copy OK
No errors occurred
AccurateRip summary
Track  1  not present in database
Track  2  not present in database
Track  3  not present in database
Track  4  not present in database
Track  5  not present in database
Track  6  not present in database
Track  7  not present in database
Track  8  not present in database
Track  9  not present in database
Track 10  not present in database
Track 11  not present in database
Track 12  not present in database
Track 13  not present in database
Track 14  not present in database
None of the tracks are present in the AccurateRip database
End of status report

Москва - Иркутск - 2003


Треклист:
01. Красивая
02. Сибиряк
03. Чёрное на белом
04. Последний раз
05. Осенний листопад
06. Москва - Иркутск
07. Мне запретили
08. Всё та же масть
09. Закрыли друга
10. Водочка
11. Наручники
12. На Чёрном море
13. Красивая (караоке)

Лог EAC (в режиме Test&Copy)

Exact Audio Copy V0.99 prebeta 4 from 23. January 2008
EAC extraction logfile from 28. October 2012, 14:28
гр.ДАЛЬНИЙ СВЕТ / МОСКВА - ИРКУТСК
Used drive  : ASUS    DRW-2014L1   Adapter: 0  ID: 0
Read mode               : Secure
Utilize accurate stream : Yes
Defeat audio cache      : Yes
Make use of C2 pointers : No
Read offset correction                      : 6
Overread into Lead-In and Lead-Out          : No
Fill up missing offset samples with silence : Yes
Delete leading and trailing silent blocks   : No
Null samples used in CRC calculations       : Yes
Used interface                              : Installed external ASPI interface
Used output format              : User Defined Encoder
Selected bitrate                : 128 kBit/s
Quality                         : High
Add ID3 tag                     : No
Command line compressor         : C:\Program Files\Exact Audio Copy\Flac\flac.exe
Additional command line options : -T "DATE=%y" -T "GENRE=%m" -8 -V %s
TOC of the extracted CD
     Track |   Start  |  Length  | Start sector | End sector
    ---------------------------------------------------------
        1  |  0:00.00 |  3:25.17 |         0    |    15391
        2  |  3:25.17 |  3:26.60 |     15392    |    30901
        3  |  6:52.02 |  4:05.64 |     30902    |    49340
        4  | 10:57.66 |  4:04.28 |     49341    |    67668
        5  | 15:02.19 |  4:09.64 |     67669    |    86407
        6  | 19:12.08 |  3:51.63 |     86408    |   103795
        7  | 23:03.71 |  4:06.53 |    103796    |   122298
        8  | 27:10.49 |  3:02.21 |    122299    |   135969
        9  | 30:12.70 |  3:59.63 |    135970    |   153957
       10  | 34:12.58 |  3:20.08 |    153958    |   168965
       11  | 37:32.66 |  4:18.01 |    168966    |   188316
       12  | 41:50.67 |  4:25.47 |    188317    |   208238
       13  | 46:16.39 |  3:23.65 |    208239    |   223528
Range status and errors
Selected range
     Filename C:\Users\ГРЕХОВСКИЙ\Desktop\гр.ДАЛЬНИЙ СВЕТ\02. МОСКВА - ИРКУТСК - 2003\гр.ДАЛЬНИЙ СВЕТ - МОСКВА - ИРКУТСК.wav
     Peak level 100.0 %
     Range quality 100.0 %
     Test CRC C1BF8555
     Copy CRC C1BF8555
     Copy OK
No errors occurred
AccurateRip summary
Track  1  not present in database
Track  2  not present in database
Track  3  not present in database
Track  4  not present in database
Track  5  not present in database
Track  6  not present in database
Track  7  not present in database
Track  8  not present in database
Track  9  not present in database
Track 10  not present in database
Track 11  not present in database
Track 12  not present in database
Track 13  not present in database
None of the tracks are present in the AccurateRip database
End of status report

Моя судьба - 2003


Треклист:
01. Катюха
02. Моя судьба
03. Провинциальный детектив
04. Как же ты смогла
05. Был парень
06. Рождество
07. Ирэн
08. Дождись
09. А мы закинем удочки
10. Обет
11. На северо-восток
12. Моя судьба (караоке)

Лог EAC (в режиме Test&Copy)

Exact Audio Copy V0.99 prebeta 4 from 23. January 2008
EAC extraction logfile from 28. October 2012, 15:01
гр.ДАЛЬНИЙ СВЕТ / МОЯ СУДЬБА
Used drive  : ASUS    DRW-2014L1   Adapter: 0  ID: 0
Read mode               : Secure
Utilize accurate stream : Yes
Defeat audio cache      : Yes
Make use of C2 pointers : No
Read offset correction                      : 6
Overread into Lead-In and Lead-Out          : No
Fill up missing offset samples with silence : Yes
Delete leading and trailing silent blocks   : No
Null samples used in CRC calculations       : Yes
Used interface                              : Installed external ASPI interface
Used output format              : User Defined Encoder
Selected bitrate                : 128 kBit/s
Quality                         : High
Add ID3 tag                     : No
Command line compressor         : C:\Program Files\Exact Audio Copy\Flac\flac.exe
Additional command line options : -T "DATE=%y" -T "GENRE=%m" -8 -V %s
TOC of the extracted CD
     Track |   Start  |  Length  | Start sector | End sector
    ---------------------------------------------------------
        1  |  0:00.00 |  3:02.60 |         0    |    13709
        2  |  3:02.60 |  4:31.45 |     13710    |    34079
        3  |  7:34.30 |  4:41.33 |     34080    |    55187
        4  | 12:15.63 |  4:30.03 |     55188    |    75440
        5  | 16:45.66 |  4:17.49 |     75441    |    94764
        6  | 21:03.40 |  3:39.21 |     94765    |   111210
        7  | 24:42.61 |  3:31.10 |    111211    |   127045
        8  | 28:13.71 |  4:19.12 |    127046    |   146482
        9  | 32:33.08 |  3:15.10 |    146483    |   161117
       10  | 35:48.18 |  4:18.25 |    161118    |   180492
       11  | 40:06.43 |  5:17.00 |    180493    |   204267
       12  | 45:23.43 |  4:28.10 |    204268    |   224377
Range status and errors
Selected range
     Filename C:\Users\ГРЕХОВСКИЙ\Desktop\гр.ДАЛЬНИЙ СВЕТ\03. МОЯ СУДЬБА - 2003\гр.ДАЛЬНИЙ СВЕТ - МОЯ СУДЬБА.wav
     Peak level 100.0 %
     Range quality 100.0 %
     Test CRC 41654688
     Copy CRC 41654688
     Copy OK
No errors occurred
AccurateRip summary
Track  1  cannot be verified as accurate (confidence 1)  [5FB1D69A], AccurateRip returned [C4587CA2]
Track  2  cannot be verified as accurate (confidence 1)  [1CD2728B], AccurateRip returned [57222EC2]
Track  3  cannot be verified as accurate (confidence 1)  [6EC05A93], AccurateRip returned [1BF86910]
Track  4  cannot be verified as accurate (confidence 1)  [27FD5508], AccurateRip returned [614148A7]
Track  5  cannot be verified as accurate (confidence 1)  [6712388B], AccurateRip returned [E50ED62D]
Track  6  cannot be verified as accurate (confidence 1)  [6C31C418], AccurateRip returned [6C95FF6D]
Track  7  cannot be verified as accurate (confidence 1)  [9AC86308], AccurateRip returned [44054F49]
Track  8  cannot be verified as accurate (confidence 1)  [25767506], AccurateRip returned [2D1EF6CE]
Track  9  cannot be verified as accurate (confidence 1)  [9B837FE0], AccurateRip returned [D1A8E829]
Track 10  cannot be verified as accurate (confidence 1)  [489D07C1], AccurateRip returned [DCA4A8FE]
Track 11  cannot be verified as accurate (confidence 1)  [FB24ADC9], AccurateRip returned [2787720B]
Track 12  cannot be verified as accurate (confidence 1)  [11D0023B], AccurateRip returned [496B89DF]
No tracks could be verified as accurate
You may have a different pressing from the one(s) in the database
End of status report

По случаю весны - 2004


Треклист:
01. По случаю весны
02. Маша
03. Света
04. Галя
05. Марина
06. Лена
07. Наташа
08. Ира
09. Катя
10. Вера
11. Надежда
12. Любовь

Лог EAC (в режиме Test&Copy)

Exact Audio Copy V0.99 prebeta 4 from 23. January 2008
EAC extraction logfile from 28. October 2012, 15:32
гр.ДАЛЬНИЙ СВЕТ / ПО СЛУЧАЮ ВЕСНЫ
Used drive  : ASUS    DRW-2014L1   Adapter: 0  ID: 0
Read mode               : Secure
Utilize accurate stream : Yes
Defeat audio cache      : Yes
Make use of C2 pointers : No
Read offset correction                      : 6
Overread into Lead-In and Lead-Out          : No
Fill up missing offset samples with silence : Yes
Delete leading and trailing silent blocks   : No
Null samples used in CRC calculations       : Yes
Used interface                              : Installed external ASPI interface
Used output format              : User Defined Encoder
Selected bitrate                : 128 kBit/s
Quality                         : High
Add ID3 tag                     : No
Command line compressor         : C:\Program Files\Exact Audio Copy\Flac\flac.exe
Additional command line options : -T "DATE=%y" -T "GENRE=%m" -8 -V %s
TOC of the extracted CD
     Track |   Start  |  Length  | Start sector | End sector
    ---------------------------------------------------------
        1  |  0:00.00 |  3:12.61 |         0    |    14460
        2  |  3:12.61 |  3:54.11 |     14461    |    32021
        3  |  7:06.72 |  4:35.60 |     32022    |    52706
        4  | 11:42.57 |  4:46.38 |     52707    |    74194
        5  | 16:29.20 |  2:39.37 |     74195    |    86156
        6  | 19:08.57 |  3:54.40 |     86157    |   103746
        7  | 23:03.22 |  4:11.62 |    103747    |   122633
        8  | 27:15.09 |  3:28.17 |    122634    |   138250
        9  | 30:43.26 |  3:00.17 |    138251    |   151767
       10  | 33:43.43 |  4:01.73 |    151768    |   169915
       11  | 37:45.41 |  3:27.00 |    169916    |   185440
       12  | 41:12.41 |  5:15.61 |    185441    |   209126
Range status and errors
Selected range
     Filename C:\Users\ГРЕХОВСКИЙ\Desktop\гр.ДАЛЬНИЙ СВЕТ\04. ПО СЛУЧАЮ ВЕСНЫ - 2004\гр.ДАЛЬНИЙ СВЕТ - ПО СЛУЧАЮ ВЕСНЫ.wav
     Peak level 100.0 %
     Range quality 99.9 %
     Test CRC 5EC67607
     Copy CRC 5EC67607
     Copy OK
No errors occurred
AccurateRip summary
Track  1  not present in database
Track  2  not present in database
Track  3  not present in database
Track  4  not present in database
Track  5  not present in database
Track  6  not present in database
Track  7  not present in database
Track  8  not present in database
Track  9  not present in database
Track 10  not present in database
Track 11  not present in database
Track 12  not present in database
None of the tracks are present in the AccurateRip database
End of status report

Доп. информация:

Все участники группы родились и выросли в городе Воронеже. Датой рождения группы считается осень 1998 года. Именно тогда повстречались музыкальный продюсер, аранжировщик и автор песен Брянцев Алексей, опытный вокалист Владимир Ждамиров и второй автор Олег Симонов. Последний, освободившись из МЛС после 8 лет заключения, принёс огромную кипу стихов и песен, написанных им там... В течение 1998-1999 года записывался первый альбом группы. Он получил название "Пересылочка". На него практически сразу обратила внимание студия "СОЮЗ", и летом 1999 года состоялся релиз первого альбома группы. Работа над вторым альбомом долго затягивалась, как говорится "по семейным обстоятельствам". Три года не появлялось новых песен группы "Дальний свет". В 2002г. группа (в составе В. Ждамирова и О. Симонова) меняет название. Теперь ребята - группа "Бутырка" и на студии "Master sound" выходят их новые альбомы.
Но брэнд группы "Дальний свет" остался. За это время сменился солист группы "Дальний свет". Теперь голосом коллектива стал Игорь Измайлов, уроженец Воронежа. Появление его в коллективе довольно необычно. Игорь никогда не помышлял о карьере профессионального певца, так пел для себя, для друзей. И вот однажды позвонил он на радио, где в прямом эфире проходил конкурс караоке-исполнителей. Да так спел песню Михаила Шуфутинского, что безоговорочно выиграл главный приз. Это судьбоносное выступление случайно услышал по радио продюсер группы "Дальний свет" Брянцев Алексей, которому потребовались немалые усилия, чтобы отыскать талантливого радиослушателя. И вот уже с новым голосом были записаны несколько песен. Одна из них, которая называется "Красивая", сразу же разошлась по многим сборникам и попала в эфир радио "Шансон". На сегодняшний момент у коллектива 4 альбома. "Пересылочка", "Москва-Иркутск" (2003г.), "Моя судьба" и "По случаю весны".
Автор музыки ко всем песням группы "Дальний свет", включая альбом "Пересылочка" - Брянцев Алексей.
Автор текстов тоже он (за исключением альбома "Пересылочка").
Песня "Красивая" написана по истории из жизни Игоря Измайлова.
А песня "Москва-Иркутск" посвящена Олегу Симонову - это тоже история из его жизни.
Альбомы группы "Дальний свет" (4 альбома) записывались на студии "Basic Instinct" Алексеем Брянцевым - продюсером, аранжировщиком, звукорежиссером, автором песен.
Яндекс.Метрика
Рейтинг@Mail.ru