Звёздный путь / Star Trek (Джей Джей Абрамс / J.J. Abrams) [2009 г., фантастика, боевик, приключения, BDRip, 1080p] Dub + Original (Eng) + Sub (Rus, Eng)

 

Создавать темы 06-Май-2014 15:43

-Звёздный путь / Star Trek-«Будущее начинается»- Производство: США , Германия , Paramount Pictures, Bad Robot
Год выпуска: 2009 г.
Жанр: фантастика, боевик, приключения
Продолжительность: 02:06:50
Мировая премьера: 7 апреля 2009
Российская премьера: 7 мая 2009, «Централ Партнершип»
Дата выхода DVD: 27 октября 2009, «Юниверсал Пикчерс Рус»
Дата выхода Blu-Ray: 10 ноября 2009, «Юниверсал Пикчерс Рус»
Перевод: Профессиональный (полное дублирование)
Оригинальный аудиопоток: английский
Режиссёр: Джей Джей Абрамс / J.J. Abrams-В ролях: Крис Пайн, Закари Куинто, Зои Салдана, Карл Урбан, Эрик Бана, Антон Ельчин, Саймон Пегг, Джон Чо, Леонард Нимой, Брюс Гринвуд-Описание: Когда Нерон с планеты Ромул приходит из будущего, чтобы отомстить Федерации, конкуренты Кирк и Спок должны объединиться, чтобы не дать ему разрушить всё, что им дорого. Во время этого будоражащего путешествия, наполненного эффектными боями, юмором и космическими угрозами, новоиспечённые члены команды военного корабля «Энтерпрайз» смело встретятся лицом к лицу с невообразимыми опасностями.
-Качество видео: BDRip
Контейнер: MKV
Стандарт разрешения: 1080p
Видео кодек: AVC
Аудио кодек: AC3
Видео: 1920x800 (2.40:1), 8141 kbps, 23.976 fps, 0.221 bit/pixel
Аудио: Russian [Dub]: AC3, 448 kbps, 6 ch, 48.0 kHz
Аудио #2: English [Original]: AC3, 384 kbps, 6 ch, 48.0 kHz
Cубтитры: русские, английские

Награды

Media Info

Общее
Уникальный идентификатор : 171727604190971773240475667823280755341 (0x81318894B247E9F6B5DF7C8E779B928D)
Полное имя : Звёздный путь_ Star Trek (2009) [BDRip.1080p].mkv
Формат : Matroska
Версия формата : Version 2
Размер файла : 7,95 Гбайт
Продолжительность : 2 ч. 6 м.
Общий поток : 8970 Кбит/сек
Дата кодирования : UTC 2012-08-08 06:22:29
Программа кодирования : mkvmerge v5.7.0 ('The Whirlwind') built on Jul 8 2012 20:08:51
Библиотека кодирования : libebml v1.2.3 + libmatroska v1.3.0
Видео
Идентификатор : 1
Формат : AVC
Формат/Информация : Advanced Video Codec
Профиль формата : [email protected]
Параметр CABAC формата : Да
Параметр ReFrames формата : 5 кадров
Идентификатор кодека : V_MPEG4/ISO/AVC
Продолжительность : 2 ч. 6 м.
Битрейт : 8141 Кбит/сек
Ширина : 1920 пикселей
Высота : 800 пикселей
Соотношение сторон : 2,40:1
Режим частоты кадров : Постоянный
Частота кадров : 23,976 кадра/сек
Цветовое пространство : YUV
Субдискретизация насыщенности : 4:2:0
Битовая глубина : 8 бит
Тип развёртки : Прогрессивная
Бит/(Пиксели*Кадры) : 0.221
Размер потока : 7,05 Гбайт (89%)
Библиотека кодирования : x264 core 125 r2200 999b753
Настройки программы : cabac=1 / ref=5 / deblock=1:-2:-2 / analyse=0x3:0x113 / me=umh / subme=10 / psy=1 / psy_rd=1.00:0.10 / mixed_ref=1 / me_range=32 / chroma_me=1 / trellis=2 / 8x8dct=1 / cqm=0 / deadzone=21,11 / fast_pskip=0 / chroma_qp_offset=1 / threads=6 / lookahead_threads=1 / sliced_threads=0 / nr=0 / decimate=1 / interlaced=0 / bluray_compat=0 / constrained_intra=0 / bframes=7 / b_pyramid=2 / b_adapt=2 / b_bias=0 / direct=3 / weightb=1 / open_gop=0 / weightp=2 / keyint=240 / keyint_min=23 / scenecut=40 / intra_refresh=0 / rc=2pass / mbtree=0 / bitrate=8141 / ratetol=1.0 / qcomp=0.80 / qpmin=5 / qpmax=51 / qpstep=4 / cplxblur=20.0 / qblur=0.5 / ip_ratio=1.40 / pb_ratio=1.30 / aq=2:0.90
Язык : English
Default : Да
Forced : Нет
Основные цвета : BT.709
Характеристики трансфера : BT.709
Коэффициенты матрицы : BT.709
Аудио #1
Идентификатор : 2
Формат : AC-3
Формат/Информация : Audio Coding 3
Расширение режима : CM (complete main)
Параметр Endianness формата : Big
Идентификатор кодека : A_AC3
Продолжительность : 2 ч. 6 м.
Вид битрейта : Постоянный
Битрейт : 448 Кбит/сек
Каналы : 6 каналов
Расположение каналов : Front: L C R, Side: L R, LFE
Частота : 48,0 КГц
Битовая глубина : 16 бит
Метод сжатия : С потерями
Размер потока : 406 Мбайт (5%)
Заголовок : DUB
Язык : Russian
Default : Да
Forced : Нет
Аудио #2
Идентификатор : 3
Формат : AC-3
Формат/Информация : Audio Coding 3
Расширение режима : CM (complete main)
Параметр Endianness формата : Big
Идентификатор кодека : A_AC3
Продолжительность : 2 ч. 6 м.
Вид битрейта : Постоянный
Битрейт : 384 Кбит/сек
Каналы : 6 каналов
Расположение каналов : Front: L C R, Side: L R, LFE
Частота : 48,0 КГц
Битовая глубина : 16 бит
Метод сжатия : С потерями
Размер потока : 348 Мбайт (4%)
Язык : English
Default : Нет
Forced : Нет
Текст #1
Идентификатор : 4
Формат : UTF-8
Идентификатор кодека : S_TEXT/UTF8
Идентификатор кодека/Информация : UTF-8 Plain Text
Язык : Russian
Default : Нет
Forced : Нет
Текст #2
Идентификатор : 5
Формат : UTF-8
Идентификатор кодека : S_TEXT/UTF8
Идентификатор кодека/Информация : UTF-8 Plain Text
Язык : English
Default : Нет
Forced : Нет
Меню
00:00:00.000 : en:Chapter 01
00:11:57.216 : en:Chapter 02
00:19:45.100 : en:Chapter 03
00:28:09.104 : en:Chapter 04
00:35:33.506 : en:Chapter 05
00:44:10.397 : en:Chapter 06
00:52:21.721 : en:Chapter 07
01:01:33.606 : en:Chapter 08
01:11:40.087 : en:Chapter 09
01:20:39.501 : en:Chapter 10
01:27:35.291 : en:Chapter 11
01:36:29.575 : en:Chapter 12
01:44:34.268 : en:Chapter 13
01:53:13.411 : en:Chapter 14
01:58:20.551 : en:Chapter 15
02:06:50.019 : en:Chapter 16

Скриншоты

Яндекс.Метрика
Рейтинг@Mail.ru