[ Сегодня на трекере фрилич! Идет свободное скачивание без начисления Download ]

Пока смерть не разлучит нас / Death Do Us Part (Николас Хемфрис / Nicholas Humphries) [2014 г., ужасы, триллер, WEB-DL] VO

 

Создавать темы 05-Май-2014 20:33

-Пока смерть не разлучит нас / Death Do Us Part-- Производство: Канада
Год выпуска: 2014 г.
Жанр: ужасы, триллер
Продолжительность: 01:29:04
Мировая премьера: 15 апреля 2014
Перевод: Любительский (одноголосый, закадровый) [datynet]-Режиссер: Николас Хемфрис / Nicholas Humphries-В ролях: Джулия Андерсон, Питер Бенсон, Эмили Уллерап, Кристин Шателейн, Кайл Кэсси, Бенджамин Эйрс, Дэйв Коллетт, Аарон Дуглас, Вив Ликок-Описание: Богатая светская львица Кеннеди Джэмисон всю свою жизнь мечтала об идеальной свадьбе. И вот наконец-то она помолвлена с очаровательным Райаном Харрисом, который через неделю станет её мужем, для полного счастья не хватает только последней холостяцкой вечеринки. Шафер Райана, Чет, арендует отдаленный домик в лесу, чтобы устроить им настоящий праздник, который они не забудут никогда. Но постепенно события принимают ужасающий оборот, члены компании начинают жестоко погибать один за другим. Что-то произошло, и празднование быстро превращается в кровавый кошмар. Дружба разорвана, и шквал обвинений друг друга в этом злодеянии дополняет психологический ужас, поворачивая его в сторону детективного романа.- -Качество видео: WEB-DL
Контейнер: AVI
Видео кодек: XviD
Аудио кодек: MP3
Видео: 720x400 (16:9) 23.976fps 998 Kbps 0.145 bit/pixel
Аудио: MP3 44100Hz stereo 160kbps
Cубтитры: отсутствуют-

Media Info

General
Complete name : D:\Пока смерть не разлучит нас\Death.Do.Us.Part.WEBDLRip.avi
Format : AVI
Format/Info : Audio Video Interleave
File size : 746 MiB
Duration : 1h 29mn
Overall bit rate : 1 170 Kbps
Writing application : Lavf55.35.101
Original source form/Name : Movie
Comment : Rus (datynet)
Video
ID : 0
Format : MPEG-4 Visual
Format profile : [email protected]
Format settings, BVOP : No
Format settings, QPel : No
Format settings, GMC : No warppoints
Format settings, Matrix : Default (H.263)
Codec ID : XVID
Codec ID/Hint : XviD
Duration : 1h 29mn
Bit rate : 998 Kbps
Width : 720 pixels
Height : 400 pixels
Display aspect ratio : 16:9
Frame rate : 23.976 fps
Color space : YUV
Chroma subsampling : 4:2:0
Bit depth : 8 bits
Scan type : Progressive
Compression mode : Lossy
Bits/(Pixel*Frame) : 0.145
Stream size : 636 MiB (85%)
Writing library : Lavc55.55.104
Audio
ID : 1
Format : MPEG Audio
Format version : Version 1
Format profile : Layer 3
Codec ID : 55
Codec ID/Hint : MP3
Duration : 1h 29mn
Bit rate mode : Constant
Bit rate : 160 Kbps
Channel(s) : 2 channels
Sampling rate : 44.1 KHz
Compression mode : Lossy
Stream size : 102 MiB (14%)
Alignment : Aligned on interleaves
Interleave, duration : 26 ms (0.63 video frame)
Interleave, preload duration : 26 ms
Writing library : LAME3.99.5
-

Скриншот c названием фильма

-

Скриншоты

-
Яндекс.Метрика
Рейтинг@Mail.ru