(Fusion / World) Jonae - Into The Blue - 2006, FLAC (image+.cue), lossless

 

Создавать темы 16-Окт-2013 16:01

Jonae / Into The Blue
Жанр: Fusion / World
Страна-производитель диска: USA
Год издания: 2006
Издатель (лейбл): Midas Well Records
Страна: USA
Аудиокодек: FLAC (*.flac)
Тип рипа: image+.cue
Битрейт аудио: lossless
Продолжительность: 00:33:25
Источник (релизер): net
Наличие сканов в содержимом раздачи: да
Треклист:
1. into the blue
2. the road home
3. sundance
4. las abejas
5. summer storm
6. one less travelled
7. traffik
8. the gloaming
9. havanna nights
10. without end
11. waiting
12. the beast

Лог создания рипа

Exact Audio Copy V0.99 prebeta 5 from 4. May 2009
Отчёт EAC об извлечении, выполненном 23. января 2013, 20:59
Jonae / Into The Blue
Дисковод: ASUS DRW-24B3ST Adapter: 1 ID: 0
Режим чтения : Достоверность
Использование точного потока : Да
Отключение кэша аудио : Да
Использование указателей C2 : Нет
Коррекция смещения при чтении : 6
Способность читать области Lead-in и Lead-out : Нет
Заполнение пропущенных сэмплов тишиной : Да
Удаление блоков с тишиной в начале и конце : Нет
При вычислениях CRC использовались нулевые сэмплы : Да
Интерфейс : Встроенный Win32-интерфейс для Win NT/2000
Выходной формат : Внутренние WAV-операции
Формат сэмплов : 44.100 Гц; 16 бит; стерео
TOC извлечённого CD
Трек | Старт | Длительность | Начальный сектор | Конечный сектор
---------------------------------------------------------------------
1 | 0:00.00 | 2:49.03 | 0 | 12677
2 | 2:49.03 | 2:33.13 | 12678 | 24165
3 | 5:22.16 | 2:08.71 | 24166 | 33836
4 | 7:31.12 | 2:04.12 | 33837 | 43148
5 | 9:35.24 | 2:58.13 | 43149 | 56511
6 | 12:33.37 | 2:58.66 | 56512 | 69927
7 | 15:32.28 | 2:13.41 | 69928 | 79943
8 | 17:45.69 | 3:07.22 | 79944 | 93990
9 | 20:53.16 | 3:48.69 | 93991 | 111159
10 | 24:42.10 | 3:07.70 | 111160 | 125254
11 | 27:50.05 | 2:52.01 | 125255 | 138155
12 | 30:42.06 | 2:43.30 | 138156 | 150410
Характеристики диапазона извлечения и сообщения об ошибках
Выбранный диапазон
Имя файла E:\Jonae - Into The Blue.wav
Пиковый уровень 98.8 %
Качество диапазона 100.0 %
CRC теста 6EE1657C
CRC копии 6EE1657C
Копирование... OK
Ошибок не произошло
AccurateRip: сводка
Трек 1 нет в базе данных
Трек 2 нет в базе данных
Трек 3 нет в базе данных
Трек 4 нет в базе данных
Трек 5 нет в базе данных
Трек 6 нет в базе данных
Трек 7 нет в базе данных
Трек 8 нет в базе данных
Трек 9 нет в базе данных
Трек 10 нет в базе данных
Трек 11 нет в базе данных
Трек 12 нет в базе данных
Ни одного трека нет в базе AccurateRip
Конец отчёта

Содержание индексной карты (.CUE)

REM GENRE Fusion
REM DATE 2006
REM DISCID A107D50C
REM COMMENT "ExactAudioCopy v0.99pb5"
PERFORMER "Jonae"
TITLE "Into The Blue"
FILE "Jonae - Into The Blue.flac" WAVE
TRACK 01 AUDIO
TITLE "Into The Blue"
PERFORMER "Jonae"
INDEX 01 00:00:00
TRACK 02 AUDIO
TITLE "The Road Home"
PERFORMER "Jonae"
INDEX 00 02:47:00
INDEX 01 02:49:03
TRACK 03 AUDIO
TITLE "Sundance"
PERFORMER "Jonae"
INDEX 00 05:20:16
INDEX 01 05:22:16
TRACK 04 AUDIO
TITLE "Las Abejas"
PERFORMER "Jonae"
INDEX 00 07:29:12
INDEX 01 07:31:12
TRACK 05 AUDIO
TITLE "Summer Storm"
PERFORMER "Jonae"
INDEX 00 09:33:21
INDEX 01 09:35:24
TRACK 06 AUDIO
TITLE "One Less Travelled"
PERFORMER "Jonae"
INDEX 00 12:31:34
INDEX 01 12:33:37
TRACK 07 AUDIO
TITLE "Traffik"
PERFORMER "Jonae"
INDEX 00 15:30:25
INDEX 01 15:32:28
TRACK 08 AUDIO
TITLE "The Gloaming"
PERFORMER "Jonae"
INDEX 00 17:43:66
INDEX 01 17:45:69
TRACK 09 AUDIO
TITLE "Havanna Nights"
PERFORMER "Jonae"
INDEX 00 20:51:16
INDEX 01 20:53:16
TRACK 10 AUDIO
TITLE "Without End"
PERFORMER "Jonae"
INDEX 00 24:40:10
INDEX 01 24:42:10
TRACK 11 AUDIO
TITLE "Waiting"
PERFORMER "Jonae"
INDEX 00 27:48:02
INDEX 01 27:50:05
TRACK 12 AUDIO
TITLE "The Beast"
PERFORMER "Jonae"
INDEX 00 30:40:03
INDEX 01 30:42:06
Доп. информация: More About Album
Яндекс.Метрика
Рейтинг@Mail.ru