[ Сегодня на трекере фрилич! Идет свободное скачивание без начисления Download ]

Мой друг – гей / Date and Switch (2014) HDRip [VO]

 

Создавать темы 04-Май-2014 16:50

-Мой друг – гей / Date and Switch (2014) HDRip- Год выпуска: 2014
Производство: США
Жанр: Комедия
Перевод: Одноголосый закадровый, любительский (Марат ШайХутДинов)
Субтитры: Отсутствуют
Дата мировой премьеры: 14 февраля 2014
Режиссер: Кристофер Нельсон
Продюсер: Дэвид Блэкман, Лоуренс Марк, Джей Стефан
Актеры: Николас Браун, Хантер Коуп, Дакота Джонсон, Зак Креггер, Куинн Лорд, Ник Офферман, Гэри Коул,Меган Маллалли, Дариен Провост, Дженифер Клемент
Описание фильма:
Два друга заключают соглашение, что должны потерять девственность до выпускного вечера, и подвергают свои дружеские отношения проверке, когда один из парней признается, что он — гей.

Рейтинг MPAA: PG-17
Продолжительность: 01:31:17
Качество видео: HDRip
Видеокодек: XviD
Битрейт видео: 1751 Kb/s
Размер кадра: 720x304
Аудио #1: 44.1 kHz, AC3 Dolby Digital, 2/0 (L,R) ch, 192 kbps (Русский) / Одноголосый
Аудио #2: 48 kHz, AC3 Dolby Digital, 2/0 (L,R) ch, 192 kbps (Английский) / Оригинал

MI

Общее
Полное имя                               : D:\Moj.drug.gej.2014.HDRip.NNM-CLUB.avi
Формат                                   : AVI
Формат/Информация                        : Audio Video Interleave
Размер файла                             : 1,37 Гбайт
Продолжительность                        : 1 ч. 31 м.
Общий поток                              : 2149 Кбит/сек
Программа кодирования                    : VirtualDubMod 1.5.10.3 | (build 2550/release)
Библиотека кодирования                   : VirtualDubMod build 2550/release
Видео
Идентификатор                            : 0
Формат                                   : MPEG-4 Visual
Профиль формата                          : Advanced [email protected]
Параметр BVOP формата                    : 2
Параметр QPel формата                    : Нет
Параметр GMC формата                     : Без точки перехода
Параметр матрицы формата                 : Default (H.263)
Идентификатор кодека                     : XVID
Идентификатор кодека/Подсказка           : XviD
Продолжительность                        : 1 ч. 31 м.
Битрейт                                  : 1751 Кбит/сек
Ширина                                   : 720 пикселей
Высота                                   : 304 пикселя
Соотношение сторон                       : 2,35:1
Частота кадров                           : 23,976 кадра/сек
Цветовое пространство                    : YUV
Субдискретизация насыщенности            : 4:2:0
Битовая глубина                          : 8 бит
Тип развёртки                            : Прогрессивная
Метод сжатия                             : С потерями
Бит/(Пиксели*Кадры)                      : 0.334
Размер потока                            : 1,12 Гбайт (81%)
Библиотека кодирования                   : XviD 1.2.1 (UTC 2008-12-04)
Аудио #1
Идентификатор                            : 1
Формат                                   : AC-3
Формат/Информация                        : Audio Coding 3
Расширение режима                        : CM (complete main)
Параметр Endianness формата              : Big
Идентификатор кодека                     : 2000
Продолжительность                        : 1 ч. 31 м.
Вид битрейта                             : Постоянный
Битрейт                                  : 192 Кбит/сек
Каналы                                   : 2 канала
Расположение каналов                     : Front: L R
Частота                                  : 44,1 КГц
Битовая глубина                          : 16 бит
Метод сжатия                             : С потерями
Размер потока                            : 125 Мбайт (9%)
Выравнивание                             : Разделение по промежуткам
Продолжительность промежутка             : 42  мс. (1,00 видеокадр)
Время предзагрузки промежутка            : 500  мс.
Аудио #2
Идентификатор                            : 2
Формат                                   : AC-3
Формат/Информация                        : Audio Coding 3
Расширение режима                        : CM (complete main)
Параметр Endianness формата              : Big
Идентификатор кодека                     : 2000
Продолжительность                        : 1 ч. 31 м.
Вид битрейта                             : Постоянный
Битрейт                                  : 192 Кбит/сек
Каналы                                   : 2 канала
Расположение каналов                     : Front: L R
Частота                                  : 48,0 КГц
Битовая глубина                          : 16 бит
Метод сжатия                             : С потерями
Размер потока                            : 125 Мбайт (9%)
Выравнивание                             : Разделение по промежуткам
Продолжительность промежутка             : 42  мс. (1,00 видеокадр)
Время предзагрузки промежутка            : 500  мс.
Скриншоты:Время раздачи: 24/7,
до 5 скачавших.
Яндекс.Метрика
Рейтинг@Mail.ru