[ Сегодня на трекере фрилич! Идет свободное скачивание без начисления Download ]

(Koto (Japanese Zither)/New Age, Instrumental) Qian Shi Zi - Asian Impressions (千世子 - 森罗万象) - 2003, APE (image+.cue), lossless

 

Создавать темы 16-Окт-2013 15:33

Qian Shi Zi - Asian Impressions (千世子 - 森罗万象)
Жанр: Koto (Japanese Zither)/New Age, Instrumental
Год издания: 2003
Аудиокодек: APE (*.ape)
Тип рипа: image+.cue
Битрейт аудио: lossless
Продолжительность: 01:03:44
Источник (релизер): internet
Наличие сканов в содержимом раздачи: нет
Треклист:
01. Prologue
02. The Purple Land
03. Festa
04. The First Frost
05. Day Dream
06. Emerald Poem
07. Carnaval
08. Moon Rise
09. Butterfly
10. Ancient Tree
11. Oriental Green
12. Sakura
13. Spring
14. The Fields of Gold
15. Asterism
16. Hurry Sundown
17. Epilogue

Audiochecker log

AUDIOCHECKER v2.0 beta (build 457) - by Dester - [email protected]
~~~~~~~~~~~~~~~~~~~~~~~~~~~~~~~~~~
-=== НЕ РЕДАКТИРУЙТЕ ЭТОТ ФАЙЛ! ===-
Путь: ...\Desktop
1 -=- 千世子 - 森罗万象.ape -=- CDDA (100%)
77178692

Содержание индексной карты (.CUE)

PERFORMER "千世子"
TITLE "森罗万象(Asian Impressions)"
FILE "千世子 - 森罗万象.ape" WAVE
TRACK 01 AUDIO
TITLE "序章(じょしょう)/Prologue"
PERFORMER "千世子"
INDEX 01 00:00:00
TRACK 02 AUDIO
TITLE "紫風(しふう)/The Purple Land"
PERFORMER "千世子"
INDEX 00 01:04:22
INDEX 01 01:07:57
TRACK 03 AUDIO
TITLE "東彩(とうさい)/Festa"
PERFORMER "千世子"
INDEX 00 06:38:65
INDEX 01 06:42:25
TRACK 04 AUDIO
TITLE "初霜(はつしも)/The First Frost"
PERFORMER "千世子"
INDEX 00 11:01:37
INDEX 01 11:04:72
TRACK 05 AUDIO
TITLE "幻風(げんぷう)/Day Dream"
PERFORMER "千世子"
INDEX 00 12:49:05
INDEX 01 12:49:40
TRACK 06 AUDIO
TITLE "翠泉(すいせん)/Emerald Poem"
PERFORMER "千世子"
INDEX 00 19:17:20
INDEX 01 19:20:55
TRACK 07 AUDIO
TITLE "豊穣(ほうじょう)/Carnaval"
PERFORMER "千世子"
INDEX 00 22:34:10
INDEX 01 22:35:45
TRACK 08 AUDIO
TITLE "昇月(しょうげつ)/Moon Rise"
PERFORMER "千世子"
INDEX 00 27:06:70
INDEX 01 27:08:67
TRACK 09 AUDIO
TITLE "蝶々(ちょうちょ)/Butterfly"
PERFORMER "千世子"
INDEX 00 32:15:55
INDEX 01 32:19:15
TRACK 10 AUDIO
TITLE "水琴楽樹(すいきんがくじゅ)/Ancient Tree"
PERFORMER "千世子"
INDEX 00 33:27:55
INDEX 01 33:28:15
TRACK 11 AUDIO
TITLE "鴬梭(おうさ)/Oriental Green"
PERFORMER "千世子"
INDEX 00 37:50:05
INDEX 01 37:53:40
TRACK 12 AUDIO
TITLE "花扇(はなおうぎ)/Sakura"
PERFORMER "千世子"
INDEX 00 41:37:70
INDEX 01 41:40:30
TRACK 13 AUDIO
TITLE "春水(しゅんすい)/Spring"
PERFORMER "千世子"
INDEX 00 46:13:47
INDEX 01 46:17:07
TRACK 14 AUDIO
TITLE "黄来(おうらい)/The Fields of Gold"
PERFORMER "千世子"
INDEX 00 47:38:12
INDEX 01 47:42:47
TRACK 15 AUDIO
TITLE "星羅(せいら)/Asterism"
PERFORMER "千世子"
INDEX 00 52:04:12
INDEX 01 52:07:47
TRACK 16 AUDIO
TITLE "夕隠(ゆうがくれ)/Hurry Sundown"
PERFORMER "千世子"
INDEX 00 55:55:35
INDEX 01 55:59:70
TRACK 17 AUDIO
TITLE "終宴(しゅうえん)/Epilogue"
PERFORMER "千世子"
INDEX 00 61:29:30
INDEX 01 61:32:65
Яндекс.Метрика
Рейтинг@Mail.ru