Истребитель зомби / Juan de los Muertos (Алехандро Бругес / Alejandro Brugues) [2011 г., ужасы, боевик, комедия, BDRip, 720p] Dub [Лицензия] + Sub (Rus, Eng) + Original (Spa)

 

Создавать темы 04-Май-2014 08:30

-Истребитель зомби / Juan de los Muertos- Производство: Испания, Куба, La Zanfoña Producciones, Producciones de la 5ta Avenida, Soundchef Studios
Год выпуска: 2011 г.
Жанр: ужасы, боевик, комедия
Продолжительность: 01:35:59
Мировая премьера: 10 сентября 2011
Российская премьера: 11 апреля 2013, «Cinema Prestige»
Дата выхода DVD: 13 июня 2013, «Cinema Prestige»-Перевод: Профессиональный (полное дублирование) [Лицензия]
Оригинальный аудиопоток: испанский-Режиссер: Алехандро Бругес / Alejandro Brugues
В ролях: Алексис Диаз де Виллегас, Хорхе Молина, Андреа Дуро, Андрос Перугоррия, Джазз Вила, Элисер Рамирес, Бланка Роза Бланко, Сузана Поусз, Антонио Дечент, Эслинда Нуньес-Описание: Гавана переживает эпидемию зомби. 40-летний бездельник Хуан решил заработать на этом. Под девизом «Хуан избавит вас от тех, кого вы любили» он предлагает людям за деньги избавляться от окружающих их инфицированных родственников и друзей. Но, когда эпидемия зомби накрывает всю страну, Хуан вынужден думать уже не о своем заработке, а о выживании.-Качество видео: BDRip
Контейнер: MKV
Стандарт разрешения: 720p
Видео кодек: H.264
Аудио кодек: AC3
Видео: 1280x688 (1.85:1), 3 409 Kbps, 24.000 fps, 0.161 bit/pix
Аудио: Russian: 384 Kbps, 6 ch, 48.0 KHz [Dub]
Аудио #2: Spanish: 640 Kbps, 6 ch, 48.0 KHz [Original]
Cубтитры: Русские, Английские
Дополнительно: Сохранены оригинальные чаптеры как на Blu-Ray.

Media Info

General
Unique ID : 238610745033211977180789175904754380974 (0xB382C205286296D19048FAE40A1EB0AE)
Complete name : D:\Juan.de.los.Muertos.2011.BDRip.720p.mkv
Format : Matroska
Format version : Version 4 / Version 2
File size : 3.03 GiB
Duration : 1h 35mn
Overall bit rate : 4 523 Kbps
Encoded date : UTC 2014-05-02 17:24:10
Writing application : mkvmerge v6.9.1 ('Blue Panther') 64bit built on Apr 18 2014 18:23:38
Writing library : libebml v1.3.0 + libmatroska v1.4.1
Video
ID : 1
Format : AVC
Format/Info : Advanced Video Codec
Format profile : [email protected]
Format settings, CABAC : Yes
Format settings, ReFrames : 9 frames
Codec ID : V_MPEG4/ISO/AVC
Duration : 1h 35mn
Bit rate : 3 409 Kbps
Width : 1 280 pixels
Height : 688 pixels
Display aspect ratio : 1.85:1
Frame rate mode : Constant
Frame rate : 24.000 fps
Color space : YUV
Chroma subsampling : 4:2:0
Bit depth : 8 bits
Scan type : Progressive
Bits/(Pixel*Frame) : 0.161
Stream size : 2.29 GiB (75%)
Writing library : x264 core 125 r2208 d9d2288
Encoding settings : cabac=1 / ref=9 / deblock=1:-3:-3 / analyse=0x3:0x113 / me=tesa / subme=10 / psy=1 / psy_rd=1.00:0.00 / mixed_ref=1 / me_range=16 / chroma_me=1 / trellis=2 / 8x8dct=1 / cqm=0 / deadzone=21,11 / fast_pskip=0 / chroma_qp_offset=-2 / threads=12 / lookahead_threads=2 / sliced_threads=0 / nr=0 / decimate=0 / interlaced=0 / bluray_compat=0 / constrained_intra=0 / bframes=7 / b_pyramid=2 / b_adapt=2 / b_bias=0 / direct=3 / weightb=1 / open_gop=0 / weightp=2 / keyint=250 / keyint_min=24 / scenecut=40 / intra_refresh=0 / rc=crf / mbtree=0 / crf=17.0 / qcomp=0.65 / qpmin=0 / qpmax=69 / qpstep=4 / ip_ratio=1.40 / pb_ratio=1.30 / aq=1:0.70
Default : No
Forced : No
Matrix coefficients : BT.709
Audio #1
ID : 2
Format : AC-3
Format/Info : Audio Coding 3
Mode extension : CM (complete main)
Format settings, Endianness : Big
Codec ID : A_AC3
Duration : 1h 35mn
Bit rate mode : Constant
Bit rate : 384 Kbps
Channel(s) : 6 channels
Channel positions : Front: L C R, Side: L R, LFE
Sampling rate : 48.0 KHz
Bit depth : 16 bits
Compression mode : Lossy
Stream size : 264 MiB (8%)
Language : Russian
Default : Yes
Forced : No
Audio #2
ID : 3
Format : AC-3
Format/Info : Audio Coding 3
Mode extension : CM (complete main)
Format settings, Endianness : Big
Codec ID : A_AC3
Duration : 1h 35mn
Bit rate mode : Constant
Bit rate : 640 Kbps
Channel(s) : 6 channels
Channel positions : Front: L C R, Side: L R, LFE
Sampling rate : 48.0 KHz
Bit depth : 16 bits
Compression mode : Lossy
Stream size : 439 MiB (14%)
Language : Spanish
Default : No
Forced : No
Text #1
ID : 4
Format : UTF-8
Codec ID : S_TEXT/UTF8
Codec ID/Info : UTF-8 Plain Text
Language : Russian
Default : Yes
Forced : No
Text #2
ID : 5
Format : UTF-8
Codec ID : S_TEXT/UTF8
Codec ID/Info : UTF-8 Plain Text
Language : English
Default : No
Forced : No
Menu
00:00:00.000 : en:00:00:00.000
00:07:32.583 : en:00:07:32.583
00:16:06.542 : en:00:16:06.542
00:23:57.042 : en:00:23:57.042
00:32:11.875 : en:00:32:11.875
00:40:15.083 : en:00:40:15.083
00:47:35.250 : en:00:47:35.250
00:56:43.833 : en:00:56:43.833
01:03:51.583 : en:01:03:51.583
01:10:39.125 : en:01:10:39.125
01:20:27.292 : en:01:20:27.292
01:27:23.375 : en:01:27:23.375
00:10:00.000 : en:00:10:00.000

Скриншоты

Яндекс.Метрика
Рейтинг@Mail.ru