Луи Сир / Louis Cyr (Дэниэл Роби / Daniel Roby) [2013 г., драма, биография, история, HDRip] VO [R.A.I.M] + Original (Fre)

 

Создавать темы 04-Май-2014 08:26

-Луи Сир / Louis Cyr- Производство: Канада, Christal Films
Год выпуска: 2013 г.
Жанр: драма, биография, история
Продолжительность: 02:09:45
Мировая премьера: 12 июля 2013-Перевод: Любительский (одноголосый, закадровый) [R.A.I.M]
Оригинальный аудиопоток: французский-Режиссер: Дэниэл Роби / Daniel Roby
В ролях: Антуан Бертран, Жильбер Сикотт, Росе-Майте Эркорека, Гийом Кир, Джил Беллоуз, Элен Ганьон, Норманд Карьер, Амели Гренье, Клифф Сондерс-Описание: Канадского борца Луи Сира часто называют самым сильным человеком всех времён. Уже в детстве он поражал окружающих своими способностями. Его достижения на спортивной арене поражают воображение, а некоторые рекорды не побиты до сих пор. Так, например, Луи мог поднять и удержать на спине вес почти в две тонны! Но несмотря на свою силу, Луи оставался крайне уязвимым человеком, который свои самые трудные победы одержал вне спортивной арены.-Качество видео: HDRip
Контейнер: AVI
Видео кодек: XviD
Аудио кодек: AC3
Видео: 720x304 (2.37:1), 23.976 fps, XviD build 62 ~1358 kbps avg, 0.26 bit/pixel
Аудио: Rus: 48 kHz, AC3 Dolby Digital, 3/2 (L,C,R,l,r) + LFE ch, ~448 kbps [VO]
Аудио #2: Fre:48 kHz, AC3 Dolby Digital, 3/2 (L,C,R,l,r) + LFE ch, ~448 kbps [Original]
Cубтитры: отсутствуют

Media Info

General
Complete name : D:\Louis.Cyr.2013.HDRip.2100MB.avi
Format : AVI
Format/Info : Audio Video Interleave
Format profile : OpenDML
File size : 2.05 GiB
Duration : 2h 9mn
Overall bit rate : 2 262 Kbps
Genre : Biography | Drama | History
Writing application : VirtualDubMod 1.5.4.1 (build 2066/release)
Writing library : VirtualDubMod build 2066/release
Original source form/Name : Movie
Video
ID : 0
Format : MPEG-4 Visual
Format profile : Advanced [email protected]
Format settings, BVOP : No
Format settings, QPel : No
Format settings, GMC : No warppoints
Format settings, Matrix : Default (H.263)
Codec ID : XVID
Codec ID/Hint : XviD
Duration : 2h 9mn
Bit rate : 1 347 Kbps
Width : 720 pixels
Height : 304 pixels
Display aspect ratio : 2.35:1
Frame rate : 23.976 fps
Color space : YUV
Chroma subsampling : 4:2:0
Bit depth : 8 bits
Scan type : Progressive
Compression mode : Lossy
Bits/(Pixel*Frame) : 0.257
Stream size : 1.22 GiB (60%)
Writing library : XviD 62
Audio #1
ID : 1
Format : AC-3
Format/Info : Audio Coding 3
Mode extension : CM (complete main)
Format settings, Endianness : Big
Codec ID : 2000
Duration : 2h 9mn
Bit rate mode : Constant
Bit rate : 448 Kbps
Channel(s) : 6 channels
Channel positions : Front: L C R, Side: L R, LFE
Sampling rate : 48.0 KHz
Bit depth : 16 bits
Compression mode : Lossy
Stream size : 416 MiB (20%)
Alignment : Split accross interleaves
Interleave, duration : 42 ms (1.00 video frame)
Interleave, preload duration : 500 ms
Audio #2
ID : 2
Format : AC-3
Format/Info : Audio Coding 3
Mode extension : CM (complete main)
Format settings, Endianness : Big
Codec ID : 2000
Duration : 2h 9mn
Bit rate mode : Constant
Bit rate : 448 Kbps
Channel(s) : 6 channels
Channel positions : Front: L C R, Side: L R, LFE
Sampling rate : 48.0 KHz
Bit depth : 16 bits
Compression mode : Lossy
Stream size : 416 MiB (20%)
Alignment : Split accross interleaves
Interleave, duration : 42 ms (1.00 video frame)
Interleave, preload duration : 500 ms

Скриншоты

Яндекс.Метрика
Рейтинг@Mail.ru