Перепутье / Crossroads (Джозеф Охайон / Joseph Ohayon) [2013 г., документальный, HDTVRip] MVO

 

Создавать темы 03-Май-2014 18:42

-Перепутье / Crossroads-Родовые схватки нового мира- Производство: США, CrossroadsTheFilm
Жанр: документальный
Год выпуска: 2013 г.
Продолжительность: 01:04:05
Перевод: Профессиональный (многоголосый, закадровый)
Режиссёр: Джозеф Охайон / Joseph Ohayon-В ролях: Брюс Липтон, Питер Джозеф, Элизабет Саторис. Дональд Уолш, Каролин Миллер, Михаэль Лайтман, Джаирон Куэста, Амит Госвами, Джон Августин, Дайв Шерман, Дин Радин, Эрвин Лазло, Анни Леонард, Николас Кристакис, Джеймс Фовлер-Описание: «Перепутье: родовые схватки нового мира» - это документальный фильм, раскрывающий глубины текущего состояния человечества и появления нового восприятия мира, которое буквально заставляет вывернуть наизнанку все наши прошлые знания о мироустройстве.
Сплетая воедино принципы и новейшие открытия биологии, психологии, кибернетики, теории систем, бизнеса, культуры и средств массовой информации, фильм раскрывает внутренний смысл состояния человечества в 21-м веке, призывая зрителей шире и глубже посмотреть на предположения о том, кто мы есть на самом деле, и почему мы делаем то, что делаем.
«Перепутье» рассматривает резкий рост социальных волнений, стихийных бедствий и экономических крахов в рамках эволюционного процесса. Фильм освещает шаги возникновения интегрального мировоззрения, которое прокладывает свой путь, используя всю мощь социальных сетей, и претендует на то, чтобы стать основой нашего личного и общественного сознания в скором будущем.
Этот фильм - раскрытие современной реальности для всех зрителей и громкий призыв для тех, кто уже осознает, что мы стоим на пороге совершенно нового восприятия мира.
-Качество видео: HDTVRip
Контейнер: MP4
Видео кодек: AVC
Аудио кодек: AAC
Видео: 1280x720, 4844 kbps, 25 fps, 0.210 bit/pixel
Аудио: 254 kbps, 2 ch, 44.1 kHz
Cубтитры: отсутствуют

Media Info

Общее
Полное имя : Перепутье-родовые схватки нового мира_ Crossroads(2013)[HDTVRip].mp4
Формат : MPEG-4
Профиль формата : Base Media / Version 2
Идентификатор кодека : mp42
Размер файла : 2,28 Гбайт
Продолжительность : 1 ч. 4 м.
Режим общего битрейта : Переменный
Общий поток : 5101 Кбит/сек
Дата кодирования : UTC 2013-04-25 15:40:24
Дата пометки : UTC 2013-04-25 15:40:24
Видео
Идентификатор : 1
Формат : AVC
Формат/Информация : Advanced Video Codec
Профиль формата : [email protected]
Параметр CABAC формата : Да
Параметр ReFrames формата : 2 кадра
Параметр GOP формата : M=4, N=33
Идентификатор кодека : avc1
Идентификатор кодека/Информация : Advanced Video Coding
Продолжительность : 1 ч. 4 м.
Вид битрейта : Переменный
Битрейт : 4844 Кбит/сек
Максимальный битрейт : 8000 Кбит/сек
Ширина : 1280 пикселей
Высота : 720 пикселей
Соотношение сторон : 16:9
Режим частоты кадров : Постоянный
Частота кадров : 25,000 кадров/сек
Стандарт вещания : PAL
Цветовое пространство : YUV
Субдискретизация насыщенности : 4:2:0
Битовая глубина : 8 бит
Тип развёртки : Прогрессивная
Бит/(Пиксели*Кадры) : 0.210
Размер потока : 2,17 Гбайт (95%)
Язык : English
Дата кодирования : UTC 2013-04-25 15:40:24
Дата пометки : UTC 2013-04-25 15:40:24
Основные цвета : BT.709
Характеристики трансфера : BT.709
Коэффициенты матрицы : BT.709
Аудио
Идентификатор : 2
Формат : AAC
Формат/Информация : Advanced Audio Codec
Профиль формата : LC
Идентификатор кодека : 40
Продолжительность : 1 ч. 4 м.
Вид битрейта : Переменный
Битрейт : 254 Кбит/сек
Максимальный битрейт : 529 Кбит/сек
Каналы : 2 канала
Расположение каналов : Front: L R
Частота : 44,1 КГц
Метод сжатия : С потерями
Размер потока : 116 Мбайт (5%)
Язык : English
Дата кодирования : UTC 2013-04-25 15:40:24
Дата пометки : UTC 2013-04-25 15:40:24
mdhd_Duration : 3845944

Скриншоты

Яндекс.Метрика
Рейтинг@Mail.ru