Робо-крокодил / Robocroc (Артур Синклер / Arthur Sinclair) [2013 г., ужасы, фантастика, WEB-DLRip] MVO + Original (Eng)

 

Создавать темы 03-Май-2014 18:33

-Робо-крокодил / Robocroc-- Производство: США UFO International Productions
Год выпуска: 2013 г.
Жанр: ужасы, фантастика
Продолжительность: 01:24:45
Мировая премьера: 14 сентября 2013
Перевод: Профессиональный (многоголосый, закадровый)
Режиссер: Артур Синклер / Arthur Sinclair-В ролях: Кит Даффи, Христо Балабанов, Флоренс Бруденель, Оуэн Дэвис, Кристиан Хаммердорфер, Стивен Хартли, Лиза МакАллистер, Владо Мажанаов, Корин Немек, Атанас Сребрев-Описание: Сверхсекретный космический корабль при входе в атмосферу терпит крушение. Его обломки падают в водоём с крокодилами. А космос разрабатывал дроидов — для военной программы. Эти боевые дроиды проникают в организм крокодила и дают команду его нервной системе — уничтожить людей!-
Качество видео: WEB-DLRip
Контейнер: AVI
Видео кодек: XviD
Аудио кодек: AC3
Видео: XviD, 1915 Кбит/с, 720x400 (16:9), 23.976 fps, 0.277 bpp
Аудио: Rus: 48 kHz, AC3, 192 kb/s (2 ch) MVO
Аудио 2: Eng: 44.1 kHz, AC3, 192 kb/s (2 ch) (Original)
Cубтитры: отсутствуют

Media Info

General
Complete name : W:\Robokrokodil.2013.P.WEBDLRip.avi
Format : AVI
Format/Info : Audio Video Interleave
File size : 1.37 GiB
Duration : 1h 24mn
Overall bit rate : 2 314 Kbps
Writing application : VirtualDubMod 1.5.10.2 (build 2540/release)
Writing library : VirtualDubMod build 2540/release
Video
ID : 0
Format : MPEG-4 Visual
Format profile : Advanced [email protected]
Format settings, BVOP : Yes
Format settings, QPel : No
Format settings, GMC : No warppoints
Format settings, Matrix : Default (MPEG)
Codec ID : XVID
Codec ID/Hint : XviD
Duration : 1h 24mn
Bit rate : 1 915 Kbps
Width : 720 pixels
Height : 400 pixels
Display aspect ratio : 16:9
Frame rate : 23.976 fps
Color space : YUV
Chroma subsampling : 4:2:0
Bit depth : 8 bits
Scan type : Progressive
Bits/(Pixel*Frame) : 0.277
Stream size : 1.13 GiB (83%)
Writing library : XviD 1.2.1 (UTC 2008-12-04)
Audio #1
ID : 1
Format : AC-3
Format/Info : Audio Coding 3
Mode extension : CM (complete main)
Codec ID : 2000
Duration : 1h 24mn
Bit rate mode : Constant
Bit rate : 192 Kbps
Channel(s) : 2 channels
Channel positions : Front: L R
Sampling rate : 48.0 KHz
Bit depth : 16 bits
Stream size : 116 MiB (8%)
Alignment : Split accross interleaves
Interleave, duration : 42 ms (1.00 video frame)
Interleave, preload duration : 500 ms
Audio #2
ID : 2
Format : AC-3
Format/Info : Audio Coding 3
Mode extension : CM (complete main)
Codec ID : 2000
Duration : 1h 24mn
Bit rate mode : Constant
Bit rate : 192 Kbps
Channel(s) : 2 channels
Channel positions : Front: L R
Sampling rate : 44.1 KHz
Bit depth : 16 bits
Stream size : 116 MiB (8%)
Alignment : Split accross interleaves
Interleave, duration : 42 ms (1.00 video frame)
Interleave, preload duration : 500 ms

Скриншоты

Яндекс.Метрика
Рейтинг@Mail.ru