[ Сегодня на трекере фрилич! Идет свободное скачивание без начисления Download ]

Дело в тебе / A Case of You (Кэт Койро / Kat Coiro) [2013 г., мелодрама, комедия, BDRip, 720p] MVO [RG Victory Films]

 

Создавать темы 03-Май-2014 18:19

-Дело в тебе / A Case of You- Производство: США, I'm So Sorry Productions, Lagniappe Films, Mega Playground
Год выпуска: 2013 г.
Жанр: мелодрама, комедия
Продолжительность: 01:31:20
Мировая премьера: 21 апреля 2013-Перевод: Любительский (многоголосый, закадровый) [RG Victory Films]-Режиссер: Кэт Койро / Kat Coiro
В ролях: Джастин Лонг,Эван Рэйчел Вуд,Кейр О’Доннелл,Бизи Филиппс,Сиенна Миллер,Питер Динклэйдж,Брендан Фрейзер,Сэм Рокуэлл,Винс Вон,Линн Коэн-Описание: Фильм о том, как парень изучил анкету девушки и пытался стать ее идеальным мужчиной, делая все, что указано в ее профиле, чтобы понравиться ей.- -Качество видео: BDRip
Контейнер: MKV
Стандарт разрешения: 720p
Видео кодек: H.264
Аудио кодек: AC3
Видео: 1280x536 (2.40:1), 5 226 Kbps, 23.976 fps, 0.318 bit/pix
Аудио: 192 Kbps, 2 ch, 48.0 KHz
Cубтитры: отсутствуют

Media Info

General
Unique ID : 183267623533967061779485979078425376851 (0x89E00F76611C8B6FAD23A193FA3CF853)
Complete name : D:\A.Case.of.You.2013.BDRip.720p.mkv
Format : Matroska
Format version : Version 4 / Version 2
File size : 3.53 GiB
Duration : 1h 31mn
Overall bit rate : 5 528 Kbps
Encoded date : UTC 2014-05-03 07:54:39
Writing application : mkvmerge v6.9.1 ('Blue Panther') 64bit built on Apr 18 2014 18:23:38
Writing library : libebml v1.3.0 + libmatroska v1.4.1
Video
ID : 1
Format : AVC
Format/Info : Advanced Video Codec
Format profile : [email protected]
Format settings, CABAC : Yes
Format settings, ReFrames : 12 frames
Codec ID : V_MPEG4/ISO/AVC
Duration : 1h 31mn
Bit rate : 5 226 Kbps
Width : 1 280 pixels
Height : 536 pixels
Display aspect ratio : 2.40:1
Frame rate mode : Constant
Frame rate : 23.976 fps
Color space : YUV
Chroma subsampling : 4:2:0
Bit depth : 8 bits
Scan type : Progressive
Bits/(Pixel*Frame) : 0.318
Stream size : 3.34 GiB (95%)
Writing library : x264 core 142 r2389kMod 956c8d8
Encoding settings : cabac=1 / ref=12 / deblock=1:-3:-3 / analyse=0x3:0x133 / me=umh / subme=11 / psy=1 / fade_compensate=0.00 / psy_rd=1.00:0.00 / mixed_ref=1 / me_range=64 / chroma_me=1 / trellis=2 / 8x8dct=1 / cqm=0 / deadzone=21,11 / fast_pskip=0 / chroma_qp_offset=-2 / threads=12 / lookahead_threads=2 / sliced_threads=0 / nr=0 / decimate=0 / interlaced=0 / bluray_compat=0 / constrained_intra=0 / fgo=0 / bframes=9 / b_pyramid=2 / b_adapt=2 / b_bias=0 / direct=3 / weightb=1 / open_gop=0 / weightp=2 / keyint=250 / keyint_min=23 / scenecut=40 / intra_refresh=0 / rc_lookahead=40 / rc=crf / mbtree=0 / crf=17.0000 / qcomp=0.75 / qpmin=0 / qpmax=69 / qpstep=4 / vbv_maxrate=50000 / vbv_bufsize=62500 / crf_max=0.0 / nal_hrd=none / filler=0 / ip_ratio=1.40 / pb_ratio=1.30 / aq=1:0.70
Language : English
Default : Yes
Forced : No
Color primaries : BT.709
Transfer characteristics : BT.709
Matrix coefficients : BT.709
Audio
ID : 2
Format : AC-3
Format/Info : Audio Coding 3
Mode extension : CM (complete main)
Format settings, Endianness : Big
Codec ID : A_AC3
Duration : 1h 31mn
Bit rate mode : Constant
Bit rate : 192 Kbps
Channel(s) : 2 channels
Channel positions : Front: L R
Sampling rate : 48.0 KHz
Bit depth : 16 bits
Compression mode : Lossy
Stream size : 126 MiB (3%)
Title : Victory Films
Language : Russian
Default : Yes
Forced : Yes
Menu
00:00:00.000 : en:00:00:00.000
00:05:18.109 : en:00:05:18.109
00:14:19.067 : en:00:14:19.067
00:21:53.771 : en:00:21:53.771
00:28:23.368 : en:00:28:23.368
00:34:38.743 : en:00:34:38.743
00:42:15.658 : en:00:42:15.658
00:50:57.638 : en:00:50:57.638
00:57:45.837 : en:00:57:45.837
01:06:33.990 : en:01:06:33.990
01:16:45.768 : en:01:16:45.768
01:27:11.977 : en:01:27:11.977

Скриншоты

Яндекс.Метрика
Рейтинг@Mail.ru