[ Сегодня на трекере фрилич! Идет свободное скачивание без начисления Download ]

Помпеи / Pompeii (2014) BDRemux [1080p] [Line]

 

Создавать темы 03-Май-2014 07:20

-Помпеи / Pompeii (2014) BDRemux
«Некоторые истории пишутся кровью»
- Год выпуска: 2014
Производство: Канада, Германия / FilmDistrict
Жанр: Боевик, драма, мелодрама, приключения-Описание фильма:
История любви раба Майло и благородной Кассии, обрученной с римским сенатором, на фоне извержения Везувия, которое навсегда стерло с лица земли древнеримский город Помпеи…-Режиссер: Пол У. С. Андерсон / Paul W.S. Anderson
Продюсер: Пол У. С. Андерсон, Джереми Болт, Дон Кармоди
Актеры: Саша Ройз, Кэрри-Энн Мосс, Адевале Акинойе-Агбаже, Эмили Браунинг, Джессика Лукас, Кифер Сазерленд, Кит Харингтон, Джо Пинг, Джаред Харрис, Карри Грэм-Язык: Русский, английский
Перевод: Дублированный [чистый звук]
Вид субтитров: Вшитые отключаемые
Язык субтитров: Английский (full, SDH)-Дата мировой премьеры: 18 февраля 2014
Дата российской премьеры: 19 февраля 2014, «Парадиз»
Дата выхода DVD релиза: 20 мая 2014, «Парадиз / Активижен»
Дата выхода Blu-Ray релиза: 20 мая 2014, «Парадиз / Активижен»
- -Рейтинг MPAA: PG-13
Возраст: 12+
-Продолжительность: 01:44:59
Качество видео: BDRemux-Видео: MPEG-4 AVC/H.264, 1920x1080, ~24923 kbps, 0.535 bit/pixel, 23.976 fps
Аудио 1: AC3 2.0, 320 kbps, 48 KHz, 16-bit [Русский - дублированный]
Аудио 2: DTS-HD MA 5.1, 4077 kbps, 48 kHz, 24-bit [Английский - оригинал]-

MediaInfo:

Полное имя : D:\Помпеи-Pompeii.(2014).BDRemux.[1080p].mkv [yellosoft-club.ru]
Формат : Matroska
Версия формата : Version 2
Размер файла : 21,5 Гбайт
Продолжительность : 1 ч. 44 м.
Режим общего битрейта : Переменный
Общий поток : 29,3 Мбит/сек
Название фильма : Pompeii (2014) / Lelya_K for NNM-Club
Дата кодирования : UTC 2014-05-02 21:19:31
Программа кодирования : mkvmerge v5.7.0 ('The Whirlwind') built on Aug 7 2012 14:11:40
Библиотека кодирования : libebml v1.2.3 + libmatroska v1.3.0
Attachment : Yes
Видео
Идентификатор : 1
Формат : AVC
Формат/Информация : Advanced Video Codec
Профиль формата : [url=mailto:[email protected]][email protected][/url]
Параметр CABAC формата : Да
Параметр ReFrames формата : 2 кадра
Параметр GOP формата : M=1, N=10
Идентификатор кодека : V_MPEG4/ISO/AVC
Продолжительность : 1 ч. 44 м.
Вид битрейта : Переменный
Битрейт : 26,6 Мбит/сек
Ширина : 1920 пикселей
Высота : 1080 пикселей
Соотношение сторон : 16:9
Режим частоты кадров : Постоянный
Частота кадров : 23,976 кадра/сек
Цветовое пространство : YUV
Субдискретизация насыщенности : 4:2:0
Битовая глубина : 8 бит
Тип развёртки : Прогрессивная
Бит/(Пиксели*Кадры) : 0.535
Размер потока : 19,5 Гбайт (91%)
Заголовок : Помпеи-Pompeii.(2014).BDRemux.[1080p]
Язык : English
Default : Да
Forced : Нет
Аудио #1
Идентификатор : 2
Формат : AC-3
Формат/Информация : Audio Coding 3
Расширение режима : CM (complete main)
Параметр Endianness формата : Big
Идентификатор кодека : A_AC3
Продолжительность : 1 ч. 44 м.
Вид битрейта : Постоянный
Битрейт : 320 Кбит/сек
Каналы : 2 канала
Расположение каналов : Front: L R
Частота : 48,0 КГц
Битовая глубина : 16 бит
Метод сжатия : С потерями
Размер потока : 240 Мбайт (1%)
Заголовок : AC3 2.0 / 320 kbps / Dub
Язык : Russian
Default : Да
Forced : Нет
Аудио #2
Идентификатор : 3
Формат : DTS
Формат/Информация : Digital Theater Systems
Профиль формата : MA / Core
Идентификатор кодека : A_DTS
Продолжительность : 1 ч. 44 м.
Вид битрейта : Переменный
Битрейт : 1807 Кбит/сек / 1510 Кбит/сек
Каналы : 6 каналов
Расположение каналов : Front: L C R, Side: L R, LFE
Частота : 48,0 КГц
Битовая глубина : 24 бит
Метод сжатия : Без потерь / Lossy
Заголовок : DTS-HD MA 5.1 / 4077 kbps / Original
Язык : English
Default : Нет
Forced : Нет
Текст #1
Идентификатор : 4
Формат : UTF-8
Идентификатор кодека : S_TEXT/UTF8
Идентификатор кодека/Информация : UTF-8 Plain Text
Заголовок : Full
Язык : English
Default : Нет
Forced : Нет
Текст #2
Идентификатор : 5
Формат : UTF-8
Идентификатор кодека : S_TEXT/UTF8
Идентификатор кодека/Информация : UTF-8 Plain Text
Заголовок : SDH
Язык : English
Default : Нет
Forced : Нет
Меню
00:00:00.000 : en:00:00:00.000
00:05:27.077 : en:00:05:27.077
00:09:51.674 : en:00:09:51.674
00:15:58.457 : en:00:15:58.457
00:19:52.858 : en:00:19:52.858
00:26:45.103 : en:00:26:45.103
00:32:36.621 : en:00:32:36.621
00:38:18.838 : en:00:38:18.838
00:47:35.811 : en:00:47:35.811
00:52:17.718 : en:00:52:17.718
01:03:25.218 : en:01:03:25.218
01:09:02.930 : en:01:09:02.930
01:17:27.309 : en:01:17:27.309
01:23:46.521 : en:01:23:46.521
01:30:04.149 : en:01:30:04.149
01:35:08.119 : en:01:35:08.119
-

Скриншоты

Яндекс.Метрика
Рейтинг@Mail.ru