Патрик / Patrick (Марк Хартли / Mark Hartley) [2013 г., Ужасы, фантастика, триллер, HDRip] DVO [DeadSno & den904] + Original (Eng)

 

Создавать темы 02-Май-2014 04:56

-Патрик / Patrick--«The killer in a coma returns» Производство: Австралия, F.G. Film Productions, Film Victoria, Head Gear Films, Melbourne International Film Festival, Metrol Technology, Screen Australia, Screen Queensland
Год выпуска: 2013 г.
Жанр: Ужасы, фантастика, триллер
Продолжительность: 01:35:34
Мировая премьера: 27 июля 2013
Перевод: Любительский (двухголосый, закадровый) [DeadSno & den904]
Оригинальный аудиопоток: английский
Режиссер: Марк Хартли / Mark Hartley-В ролях: Чарльз Дэнс, Рэйчел Гриффитс, Шарни Винсон, Пета Сержант, Дамон Гамо, Мартин Крюз, Элиза Тейлор, Симона Бьюкэнэн, Шэйн Нэгл, Крис Фортуна-Описание: Убив мать и ее любовника несколько лет назад, Патрик впадает в коматозное состояние и становится пациентом палаты N15 в частной психиатрической клинике доктора Роже, который использует его в качестве подопытного кролика в своих странных исследованиях о жизни и смерти. Когда Кэти, медсестра недавно расставшаяся со своим бойфрендом, начинает работать в клинике, ей поручают заботиться о Патрике. Девушка обеспокоена методами лечения доктора Роже и каким-то образом чувствует, что пациент пытается установить связь с ней.-
Качество видео: HDRip
Контейнер: AVI
Видео кодек: XviD
Аудио кодек: AC3
Видео: 720x304 (2.37:1), 23.976 fps, XviD MPEG-4 ~1354 kbps avg, 0.26 bit/pixel
Аудио: Rus: 48 kHz, Dolby AC3, 6 ch, 384 kbps DVO (DeadSno & den904)
Аудио 2: Eng: 48 kHz, Dolby AC3, 6 ch, 448 kbps (Original)
Cубтитры: отсутствуют

Media Info

General
Complete name : W:\Patrick.2013.HDRip.avi
Format : AVI
Format/Info : Audio Video Interleave
File size : 1.47 GiB
Duration : 1h 35mn
Overall bit rate : 2 201 Kbps
Writing application : VirtualDubMod 1.5.10.2 (build 2542/release)
Writing library : VirtualDubMod build 2542/release
Video
ID : 0
Format : MPEG-4 Visual
Format profile : Advanced [email protected]
Format settings, BVOP : Yes
Format settings, QPel : No
Format settings, GMC : No warppoints
Format settings, Matrix : Default (H.263)
Muxing mode : Packed bitstream
Codec ID : XVID
Codec ID/Hint : XviD
Duration : 1h 35mn
Bit rate : 1 355 Kbps
Width : 720 pixels
Height : 304 pixels
Display aspect ratio : 2.35:1
Frame rate : 23.976 fps
Color space : YUV
Chroma subsampling : 4:2:0
Bit depth : 8 bits
Scan type : Progressive
Bits/(Pixel*Frame) : 0.258
Stream size : 926 MiB (62%)
Writing library : XviD 64
Audio #1
ID : 1
Format : AC-3
Format/Info : Audio Coding 3
Mode extension : CM (complete main)
Codec ID : 2000
Duration : 1h 35mn
Bit rate mode : Constant
Bit rate : 384 Kbps
Channel(s) : 6 channels
Channel positions : Front: L C R, Side: L R, LFE
Sampling rate : 48.0 KHz
Bit depth : 16 bits
Stream size : 263 MiB (17%)
Alignment : Split accross interleaves
Interleave, duration : 42 ms (1.00 video frame)
Interleave, preload duration : 500 ms
Audio #2
ID : 2
Format : AC-3
Format/Info : Audio Coding 3
Mode extension : CM (complete main)
Codec ID : 2000
Duration : 1h 35mn
Bit rate mode : Constant
Bit rate : 448 Kbps
Channel(s) : 6 channels
Channel positions : Front: L C R, Side: L R, LFE
Sampling rate : 48.0 KHz
Bit depth : 16 bits
Stream size : 306 MiB (20%)
Alignment : Split accross interleaves
Interleave, duration : 42 ms (1.00 video frame)
Interleave, preload duration : 500 ms

Скриншоты

Яндекс.Метрика
Рейтинг@Mail.ru