[ Сегодня на трекере фрилич! Идет свободное скачивание без начисления Download ]

Петля (Мирас Толеуханов) [2013 г., Триллер, криминал, DVDRip]

 

Создавать темы 02-Май-2014 04:54

-Петля-- Производство: Казахстан, Сity-Z Production
Режиссер: Мирас Толеуханов
Жанр: Триллер, криминал
Год выпуска: 2013 г.
Продолжительность: 01:55:43
Российская премьера: 2013
В ролях: Гани Ажикенов, Умида Мухитдинова, Жандос Амангельдиев, Алия Балдыкова-Описание: Жизненные обстоятельства неуклонно загоняют героев фильма «Петля» в ловушку. Молодые супруги Арна и Талант в одном шаге от развода. Сложности во взаимоотношениях между ними накладываются на непростую историю с участием криминальных элементов из мира бандитов, в которой они оказались замешаны. Все становится совсем плохо, когда происходит непреднамеренное убийство, и новый вид наркотиков наводняет городские улицы. Смогут ли герои фильма «Петля» выбраться из того омута, в который угодили, и как сложится все для тех, кто находится сейчас с ними рядом?-
Качество видео: DVDRip
Контейнер: AVI
Видео кодек: XviD
Аудио кодек: AC3
Видео: XviD, 1715 Кбит/с, 720x336 (2.20:1), 25.000 fps, 0.284 bpp
Аудио: 44.1 kHz, MP3, 2 ch, 128 Кбит/с
Cубтитры: отсутствуют

Media Info

General
Complete name : W:\Petlay.2013.DVDRip.avi
Format : AVI
Format/Info : Audio Video Interleave
File size : 1.37 GiB
Duration : 1h 45mn
Overall bit rate : 1 853 Kbps
Writing application : VirtualDubMod 1.5.10.3 | (build 2550/release)
Writing library : VirtualDubMod build 2550/release
Video
ID : 0
Format : MPEG-4 Visual
Format profile : Advanced [email protected]
Format settings, BVOP : Yes
Format settings, QPel : No
Format settings, GMC : No warppoints
Format settings, Matrix : Default (H.263)
Codec ID : XVID
Codec ID/Hint : XviD
Duration : 1h 45mn
Bit rate : 1 715 Kbps
Width : 720 pixels
Height : 336 pixels
Display aspect ratio : 2.2:1
Frame rate : 25.000 fps
Color space : YUV
Chroma subsampling : 4:2:0
Bit depth : 8 bits
Scan type : Progressive
Bits/(Pixel*Frame) : 0.284
Stream size : 1.27 GiB (93%)
Writing library : XviD 1.2.1 (UTC 2008-12-04)
Audio
ID : 1
Format : MPEG Audio
Format version : Version 1
Format profile : Layer 3
Mode : Joint stereo
Mode extension : MS Stereo
Codec ID : 55
Codec ID/Hint : MP3
Duration : 1h 45mn
Bit rate mode : Constant
Bit rate : 128 Kbps
Channel(s) : 2 channels
Sampling rate : 44.1 KHz
Stream size : 97.0 MiB (7%)
Alignment : Split accross interleaves
Interleave, duration : 40 ms (1.00 video frame)
Interleave, preload duration : 500 ms
Writing library : LAME3.99r
Encoding settings : -m j -V 4 -q 2 -lowpass 17 -b 128

Скриншоты

Яндекс.Метрика
Рейтинг@Mail.ru