[ Сегодня на трекере фрилич! Идет свободное скачивание без начисления Download ]

Зак и Мири снимают порно / Zack and Miri Make a Porno (Кевин Смит / Kevin Smith) [2008 г., комедия, мелодрама, BDRip] Dub

 

Создавать темы 01-Май-2014 03:17

-Зак и Мири снимают порно / Zack and Miri Make a Porno- Производство: США, Blue Askew, Weinstein Company, The, View Askew Productions
Год выпуска: 2008 г.
Жанр: комедия, мелодрама
Продолжительность: 01:41:34
Мировая премьера: 7 сентября 2008
Российская премьера: 13 ноября 2008, «Каскад»
Дата выхода DVD: 4 декабря 2008, «Columbia/Sony»-Перевод: Профессиональный (полное дублирование)-Режиссер: Кевин Смит / Kevin Smith
В ролях: Элизабет Бэнкс, Сет Роген, Крэйг Робинсон, Джейсон Мьюз, Трейси Лордс, Дженнифер Швалбах Смит, Джефф Андерсон, Кэти Морган, Брэндон Рут, Джастин Лонг-Описание: Зак и Мири — два лучших друга, которые занялись созданием порнографического кино для того, чтобы срубить наличных. По ходу сьёмок, Зак и Мири понимают, что они испытывают большие и сильные чувства друг к другу, чего они даже не могли представить.-Качество видео: BDRip
Контейнер: AVI
Видео кодек: XviD
Аудио кодек: AC3
Видео: 704x400 (1.76:1), 23.976 fps, XviD build 73 ~1661 kbps avg, 0.25 bit/pixel
Аудио: 48 kHz, AC3 Dolby Digital, 3/2 (L,C,R,l,r) + LFE ch, ~384 kbps
Cубтитры: отсутствуют

Media Info

General
Complete name : D:\Зак и Мири снимают порно.avi
Format : AVI
Format/Info : Audio Video Interleave
File size : 1.46 GiB
Duration : 1h 41mn
Overall bit rate : 2 055 Kbps
Writing application : VirtualDubMod 1.5.10.3 | www.virtualdub-fr.org || (build 2550/release)
Writing library : VirtualDubMod build 2550/release
Video
ID : 0
Format : MPEG-4 Visual
Format profile : Advanced [email protected]
Format settings, BVOP : 1
Format settings, QPel : No
Format settings, GMC : No warppoints
Format settings, Matrix : Custom
Codec ID : XVID
Codec ID/Hint : XviD
Duration : 1h 41mn
Bit rate : 1 662 Kbps
Width : 704 pixels
Height : 400 pixels
Display aspect ratio : 16:9
Frame rate : 23.976 fps
Color space : YUV
Chroma subsampling : 4:2:0
Bit depth : 8 bits
Scan type : Progressive
Compression mode : Lossy
Bits/(Pixel*Frame) : 0.246
Stream size : 1.18 GiB (81%)
Writing library : XviD 73
Audio
ID : 1
Format : AC-3
Format/Info : Audio Coding 3
Mode extension : CM (complete main)
Format settings, Endianness : Big
Codec ID : 2000
Duration : 1h 41mn
Bit rate mode : Constant
Bit rate : 384 Kbps
Channel(s) : 6 channels
Channel positions : Front: L C R, Side: L R, LFE
Sampling rate : 48.0 KHz
Bit depth : 16 bits
Compression mode : Lossy
Stream size : 279 MiB (19%)
Alignment : Split accross interleaves
Interleave, duration : 42 ms (1.00 video frame)
Interleave, preload duration : 500 ms

Скриншоты

Яндекс.Метрика
Рейтинг@Mail.ru