Шингу / Xingu (Као Гамбургер / Cao Hamburger) [2012 г., драма, приключения, DVDRip] VO [Pashaup]

 

Создавать темы 01-Май-2014 03:14

-Шингу / Xingu- Производство: Бразилия, Globo Filmes, O2 Filmes
Год выпуска: 2012 г.
Жанр: драма, приключения
Продолжительность: 01:43:19
Мировая премьера: 11 февраля 2012-Перевод: Любительский (одноголосый, закадровый) [Pashaup]-Режиссер: Као Гамбургер / Cao Hamburger
В ролях: Жоау Мигель, Фелипе Камаргу, Кайу Блат, Майарим Каиаби, Авакари Каиаби-Описание: История братьев Виллаш-Боаш, бразильских исследователей и активистов за права индейцев Амазонки.
В начале 40-х годов прошлого века, бразильское правительство организует экспедиции в неисследованные западные регионы страны с целью открытия и освоения новых территорий. Для множества батраков и крестьян участие в экспедиции сулит всего лишь скромный заработок. Однако, братья Виллаш-Боаш собирались в экспедицию не ради денег. Они искали свободы и приключений. Отправляясь в места, где еще не ступала нога, они не догадывались, что встреча с индейцами навсегда изменит их жизни.-Качество видео: DVDRip
Контейнер: AVI
Видео кодек: XviD
Аудио кодек: AC3
Видео: 720x304 (2.37:1), 29.970 fps, XviD MPEG-4 ~1493 kbps avg, 0.23 bit/pixel
Аудио: 48 kHz, AC3 Dolby Digital, 3/2 (L,C,R,l,r) + LFE ch, ~448 kbps
Cубтитры: отсутствуют

Media Info

General
Complete name : D:\Шингу.2012dvd.rip.avi
Format : AVI
Format/Info : Audio Video Interleave
File size : 1.41 GiB
Duration : 1h 43mn
Overall bit rate : 1 953 Kbps
Writing application : VirtualDubMod 1.5.10.2 (build 2540/release)
Video
ID : 0
Format : MPEG-4 Visual
Format profile : Advanced [email protected]
Format settings, BVOP : 2
Format settings, QPel : No
Format settings, GMC : No warppoints
Format settings, Matrix : Default (H.263)
Muxing mode : Packed bitstream
Codec ID : XVID
Codec ID/Hint : XviD
Duration : 1h 43mn
Bit rate : 1 493 Kbps
Width : 720 pixels
Height : 304 pixels
Display aspect ratio : 2.35:1
Frame rate : 29.970 fps
Color space : YUV
Chroma subsampling : 4:2:0
Bit depth : 8 bits
Scan type : Progressive
Compression mode : Lossy
Bits/(Pixel*Frame) : 0.228
Stream size : 1.08 GiB (76%)
Writing library : XviD 64
Audio
ID : 1
Format : AC-3
Format/Info : Audio Coding 3
Mode extension : CM (complete main)
Format settings, Endianness : Big
Codec ID : 2000
Duration : 1h 43mn
Bit rate mode : Constant
Bit rate : 448 Kbps
Channel(s) : 6 channels
Channel positions : Front: L C R, Side: L R, LFE
Sampling rate : 48.0 KHz
Bit depth : 16 bits
Compression mode : Lossy
Stream size : 331 MiB (23%)
Alignment : Split accross interleaves
Interleave, duration : 33 ms (1.00 video frame)
Interleave, preload duration : 500 ms

Скриншоты

Яндекс.Метрика
Рейтинг@Mail.ru