[ Сегодня на трекере фрилич! Идет свободное скачивание без начисления Download ]

А. Береснев, И. Шибайло | Как сделать мультфильм. Обучающий курс (2014) [WEB-DLRip]

 

Создавать темы 30-Апр-2014 02:45

А. Береснев, И. Шибайло.Как сделать мультфильм. Обучающий курс - Автор (режиссер): А. Береснев, И. Шибайло
Жанр: Обучающие видеуроки
Продолжительность: 01:42:07
Качество видео: WEB-DLRip
Видеокодек: MPEG4 (AVC)
Битрейт видео: ~5 904 Kbps
Размер кадра: 1920х1080
Аудиокодек: AAC
Битрейт аудио: 157 Kbps, 2 ch
Описание:
Видео пособие из 6 видеоуроков, на тему как создать свой собственный мультфильм, не имея навыков рисования и опыта в сфере мультипликации. С чего начать и какими программами пользоваться. Как научиться делать мультфильмы не поступая при этом в ВУЗ и не тратя на пустые лекции где очень много воды, свои деньги и время. Как начать делать классные мультфильмы самому. Как же делать мультики за которые нам не будет стыдно (в плане прорисовки, анимации), другими словами как делать мультфильмы не на уровне любителя

Содержание:

Урок 1 - С чего начать создание мультфильма
Урок 2 - Рисуем фоны (без навыков рисования) в Photoshop
Урок 3 - Рисуем персонажа в Anime Pro
Урок 4 - Оживляем персонажей, анимация
Урок 5 - Создаём диалоги персонажей
Урок 6 - Завершаем создание мультфильма, монтаж

MediaInfo:

General
Complete name : Урок 1 - С чего начать создание мультфильма.mp4
Format : MPEG-4
Codec ID : M4V
File size : 705 MiB
Duration : 16mn 13s
Overall bit rate : 6 074 Kbps
Encoded date : UTC 2014-03-04 17:30:26
Tagged date : UTC 2014-03-04 17:30:26
©TIM : 00:00:00:00
©TSC : 24000
©TSZ : 1001
Video
ID : 1
Format : AVC
Format/Info : Advanced Video Codec
Format profile : [url=mailto:[email protected]][email protected][/url]
Format settings, CABAC : No
Format settings, ReFrames : 2 frames
Codec ID : avc1
Codec ID/Info : Advanced Video Coding
Duration : 16mn 13s
Bit rate mode : Variable
Bit rate : 5 904 Kbps
Width : 1 920 pixels
Height : 1 080 pixels
Display aspect ratio : 16:9
Frame rate mode : Variable
Frame rate : 23.976 fps
Minimum frame rate : 23.976 fps
Maximum frame rate : 24.000 fps
Standard : NTSC
Color space : YUV
Chroma subsampling : 4:2:0
Bit depth : 8 bits
Scan type : Progressive
Bits/(Pixel*Frame) : 0.119
Stream size : 685 MiB (97%)
Language : English
Encoded date : UTC 2014-03-04 17:30:26
Tagged date : UTC 2014-03-04 17:30:26
Audio
ID : 2
Format : AAC
Format/Info : Advanced Audio Codec
Format profile : LC
Codec ID : 40
Duration : 16mn 13s
Bit rate mode : Variable
Bit rate : 157 Kbps
Maximum bit rate : 253 Kbps
Channel(s) : 2 channels
Channel positions : Front: L R
Sampling rate : 48.0 KHz
Compression mode : Lossy
Stream size : 18.3 MiB (3%)
Language : English
Encoded date : UTC 2014-03-04 17:30:26
Tagged date : UTC 2014-03-04 17:30:26
Скриншоты:

Яндекс.Метрика
Рейтинг@Mail.ru