Возмездие / The Railway Man (Джонатан Теплицки / Jonathan Teplitzky) [2013 г., драма, биография, HDRip] DVO [R.A.I.M. & QWERTY]

 

Создавать темы 30-Апр-2014 02:24

-Возмездие / The Railway Man-- Производство: Австралия, Великобритания, Archer Street Productions, Latitude Media
Год выпуска: 2013 г.
Жанр: драма, биография
Продолжительность: 01:56:19
Мировая премьера: 6 сентября 2013
Российская премьера: 1 мая 2014, «West»
Перевод: Любительский (двухголосый, закадровый) [R.A.I.M. & QWERTY]
Режиссер: Джонатан Теплицки / Jonathan Teplitzky-В ролях: Джереми Ирвин, Колин Фёрт, Стеллан Скарсгард, Майкл МакКензи, Николь Кидман, Джеффри Даунтон, Танрох Ишида, Том Стоукс, Брайан Пробетс, Том Хоббс-Описание: История Эрика Ломакса. Во время Второй мировой войны этот британский офицер был схвачен японскими войсками, вследствие чего прошел все ужасы военных лагерей, где его пытали. В плену он вынужден был участвовать в строительстве железной дороги. После освобождения, лейтенанта Ломакса произвели в капитаны.
Десятилетия спустя долгое время мечтавший о возмездии военный решился на примирение, для чего встретился с одним из своих мучителей на мосту через реку Квай.-Качество видео: HDRip
Контейнер: AVI
Видео кодек: XviD
Аудио кодек: AC3
Видео: XviD, 720x304 (2.35:1), 1346 kb/s, 23 976 fps, 0.266 bit/pix
Аудио: Rus: 48kHz, AC3, 6 ch, 448 Кбит/с DVO (R.A.I.M. & QWERTY]
Cубтитры: отсутствуют

Media Info

General
Complete name : W:\The.Railway.Man.2013.L2.HDRip.1400MB.avi
Format : AVI
Format/Info : Audio Video Interleave
File size : 1.47 GiB
Duration : 1h 56mn
Overall bit rate : 1 804 Kbps
Movie name : The.Railway.Man.2013.HDRip.1400MB.
Director : The Railway Man
Genre : Biography | Drama
Writing application : VirtualDubMod 1.5.4.1 (build 2066/release)
Writing library : VirtualDubMod build 2066/release
Original source form/Name : Movie
Comment : Rus.[L2.qwerty & R.A.I.M]
Video
ID : 0
Format : MPEG-4 Visual
Format profile : Advanced [email protected]
Format settings, BVOP : No
Format settings, QPel : No
Format settings, GMC : No warppoints
Format settings, Matrix : Default (H.263)
Codec ID : XVID
Codec ID/Hint : XviD
Duration : 1h 56mn
Bit rate : 1 346 Kbps
Width : 720 pixels
Height : 304 pixels
Display aspect ratio : 2.35:1
Frame rate : 23.976 fps
Color space : YUV
Chroma subsampling : 4:2:0
Bit depth : 8 bits
Scan type : Progressive
Bits/(Pixel*Frame) : 0.257
Stream size : 1.09 GiB (75%)
Writing library : XviD 62
Audio
ID : 1
Format : AC-3
Format/Info : Audio Coding 3
Mode extension : CM (complete main)
Codec ID : 2000
Duration : 1h 56mn
Bit rate mode : Constant
Bit rate : 448 Kbps
Channel(s) : 6 channels
Channel positions : Front: L C R, Side: L R, LFE
Sampling rate : 48.0 KHz
Bit depth : 16 bits
Stream size : 373 MiB (25%)
Alignment : Split accross interleaves
Interleave, duration : 42 ms (1.00 video frame)
Interleave, preload duration : 500 ms

Скриншоты

Яндекс.Метрика
Рейтинг@Mail.ru