[ Сегодня на трекере фрилич! Идет свободное скачивание без начисления Download ]

Земский доктор - Возвращение / Сезон 4 / Серии: 1-6 из 16 (Александр Павловский) [2013, Мелодрама, SATRip]

 

Создавать темы 15-Окт-2013 23:29

--Земский доктор - Возвращение-- Год выпуска: 2013
Производство: Россия, SE прдакшен
Жанр: Мелодрама
Продолжительность: 6~0:43:00 серия
Субтитры: нет
Режиссёр: Александр Павловский
В ролях: Ольга Будина, Андрей Чернышов, Александр Лазарев-мл., Ирина Купченко, Татьяна Васильева, Татьяна Лютаева, Светлана Немоляева, Борис Клюев, Людмила Гаврилова, Луиза Габриэлла Бровина, Дмитрий Биланов, Дарья Волга, Кристина Бабушкина
Описание: С момента последних событий в третьем сезоне жизнь Ольги Самойловой (Ольга Будина) изменилась к лучшему. После длительной депрессии, сложного возвращения к профессии и мучительных расставаний она наконец встретила свою настоящую любовь. Ольга вышла замуж за своего возлюбленного Петра (Андрей Чернышов), и скоро у них должен родиться ребенок. Дочки Ольги – Катя (Луиза Габриэлла Бровина) и недавно усыновленная девочка Мила - вместе с мамой Ольги Натальей Георгиевной (Ирина Купченко) во всем ее поддерживают. И, кажется, уже никто не силах помешать долгожданному счастью. Но судьба распорядилась иначе. В один момент все, что героине было дорого, рушится.
Петр снова, сославшись на неотложные дела, уезжает в Москву. Частые командировки супруга несколько омрачают семейное счастье Ольги, но она старается не обращать на это внимания.
Вскоре на рынке Ольге становится плохо, у нее начинаются преждевременные роды. Малыша чудом удается спасти. Выясняется, что у него врожденный порок сердца и ему требуется сложная операция.
Неожиданно в больнице героиня сталкивается со своим бывшим возлюбленным Юрием Валуевым (Александр Лазарев-мл). Он привез одного из своих рабочих, которого ударило током. Встреча производит сильное впечатление на Ольгу. Возможно, у нее еще остались чувства к бывшему полковнику.
А вскоре дальняя родственница Ольги Нинон (Светлана Немоляева) привозит ей ужасное известие. Оказывается, у Петра все это время была вторая семья. Его жена и дочь живут в Лондоне, и Петр регулярно к ним приезжает.
Счастливый брак Ольги оказался обманом. Ольга понимает, что все в ее жизни окончательно запуталось. Теперь ей придется решать, как жить дальше.


Качество: SATRip
Формат: AVI
Видео кодек: DivX
Аудио кодек: MPEG Audio
Видео: 720x400 (1.80:1), 25 fps, DivX Codec 6.8.5/6.9.1 ~1500 kbps avg, 0.21 bit/pixel
Аудио: 48 kHz, Microsoft MPEG, 2 ch, ~128.00 kbps avg

Сторонней рекламы нет!

MediaInfo

ОбщееПолное имя : E:\Downloads\55\Земский доктор - Возвращение SATRip DivX\Zemskiy.Doktor 01_серия_SATRip.aviФормат : AVIФормат/Информация : Audio Video InterleaveРазмер файла : 510 МбайтПродолжительность : 43 м.Общий поток : 1638 Кбит/секПрограмма кодирования : VirtualDubModRus 1.5.10.1 (build 2439/release)Библиотека кодирования : VirtualDubMod build 2439/release
ВидеоИдентификатор : 0Формат : MPEG-4 VisualПараметр BVOP формата : 1Параметр QPel формата : НетПараметр GMC формата : Без точки переходаПараметр матрицы формата : Default (H.263)Режим смешивания : Сжатый битовый потокИдентификатор кодека : DX50Идентификатор кодека/Подсказка : DivX 5Продолжительность : 43 м.Битрейт : 1501 Кбит/секШирина : 720 пикс.Высота : 400 пикс.Соотношение сторон : 16:9Частота кадров : 25,000 кадр/секЦветовое пространство : YUVПодвыборка цветности : 4:2:0Битовая глубина : 8 битТип развёртки : ПрогрессивнаяМетод сжатия : С потерямиБит/(Пиксели*Кадры) : 0.208Размер потока : 467 Мбайт (92%)Библиотека кодирования : DivX 6.8.5 (UTC 2009-08-20)
АудиоИдентификатор : 1Формат : MPEG AudioВерсия формата : Version 1Профиль формата : Layer 2Идентификатор кодека : 50Продолжительность : 43 м.Вид битрейта : ПостоянныйБитрейт : 128 Кбит/секКаналы : 2 каналаЧастота : 48,0 КГцМетод сжатия : С потерямиРазмер потока : 39,8 Мбайт (8%)Выравнивание : Соединение по промежуткамПродолжительность промежутка : 40 мс. (1,00 видеокадр)Время предзагрузки промежутка : 504 ms

Внимание ! Раздача ведётся путём добавления новых серий

Внимание! Раздача ведётся путём добавления новых серий; при каждом добавлении создётся новый торрент. Чтобы начать докачку новой серии, пользователям необходимо сделать следующее:
(1) остановить скачивание,
(2) удалить старый торрент у себя из клиента (старые серии удалять не надо),
(3) скачать новый торрент и запустить его у себя в клиенте вместо старого, при этом указать клиенту путь в старую папку куда и должно происходить скачивание новых серий.
Ваш клиент при этом должен произвести хеширование (проверку) старой папки (если не производит сам - помогите ему сделать это), и будет докачивать только те серии которых у вас ещё нет. Старые серии при этом не удаляются, а продолжают раздаваться!
Eсли вы уже удалили старые серии, то предотвратить повторную закачку старых серий можно, отжав галочку в соответсвующих местах при запуске нового торрента. По возможности, желательно не удалять старые серии как можно дольше чтобы релизёр не столько продолжал раздавать старые серии, а смог сконцентрироваться на новых.

Скриншоты

Яндекс.Метрика
Рейтинг@Mail.ru