[ Сегодня на трекере фрилич! Идет свободное скачивание без начисления Download ]

Час пик (Дилогия)/ Rush Hour (Бретт Ратнер / Brett Ratner) [1998-2002 г., комедия, боевик, HDRip, HDTVRip] AVO (Санаев, Живов, Гаврилов)

 

Создавать темы 28-Апр-2014 02:35

-Час пик. Дилогия / Rush Hour--Час пик / Rush Hour-- Год выпуска: 1998
Производство: США
Жанр: комедия, боевик
Продолжительность: 1:37:50-Перевод: Авторский (одноголосый, закадровый) Санаев
Перевод 2: Авторский (одноголосый, закадровый) Живов-Субтитры: отсутствуют
Режиссер: Бретт Ратнер / Brett Ratner
В ролях: Джеки Чан, Крис Такер, Том Уилкинсон, Крис Пенн, Кен Леунг, Элизабет Пенья, Майкл Чоу, Филип Бэйкер Холл, Роберт Литтман, Кай Леннокс, Лэрри Салливан--Описание: В Лос-Анджелесе злодеи похищают малолетнюю дочь китайского консула, которую в Гонконге учил кунг-фу инспектор Ли. Консул вызывает Ли в Америку, чтобы тот принял участие в освобождении девочки.
Агенты ФБР обратились к полиции с просьбой выделить им самого никчемного сотрудника, чтобы тот взял китайца на себя и показал ему достопримечательности, а главное, не позволил вмешиваться в их дела.
Им оказывается самый болтливый полицейский Картер. Естественно, после ряда разногласий и недоразумений они объединяют усилия и всерьез берутся за вызволение заложницы.
--Качество видео: HDRip
Контейнер: AVI
Видео кодек: XviD
Аудио кодек: AC3
Видео: 720x304 (2.37:1), 23.976 fps, XviD MPEG-4 ~1892 kbps avg, 0.36 bit/pixel-Аудио : 48 kHz, AC3 Dolby Digital, 3/2 (L,C,R,l,r) + LFE ch, ~448 kbps - Санаев
Аудио #2: 48 kHz, AC3 Dolby Digital, 3/2 (L,C,R,l,r) + LFE ch, ~448 kbps - Живов-

Доп. информация

РИП
За исходник BDRip 1080p спасибо Уокер (Кинозал)

Кванты

I frames: 1756 frames, size = 47478/83371898, quants = 2 / 2.00 / 2
P frames: 70744 frames, size = 12466/881939887, quants = 2 / 2.00 / 2
B frames: 68233 frames, size = 6206/423499625, quants = 2 / 2.00 / 2

Media Info

General
Complete name : G:\На пиратку\! не розданные\Chas.pik.1998.HDRip.Sanaev.Jivov_byGross.avi
Format : AVI
Format/Info : Audio Video Interleave
File size : 1.92 GiB
Duration : 1h 37mn
Overall bit rate : 2 803 Kbps
Writing application : VirtualDubMod 1.5.10.3 | www.virtualdub-fr.org || (build 2550/release)
Writing library : VirtualDubMod build 2550/release
Video
ID : 0
Format : MPEG-4 Visual
Format profile : Advanced [email protected]
Format settings, BVOP : Yes
Format settings, QPel : No
Format settings, GMC : No warppoints
Format settings, Matrix : Custom
Codec ID : XVID
Codec ID/Hint : XviD
Duration : 1h 37mn
Bit rate : 1 893 Kbps
Width : 720 pixels
Height : 304 pixels
Display aspect ratio : 2.35:1
Frame rate : 23.976 fps
Color space : YUV
Chroma subsampling : 4:2:0
Bit depth : 8 bits
Scan type : Progressive
Compression mode : Lossy
Bits/(Pixel*Frame) : 0.361
Stream size : 1.29 GiB (68%)
Writing library : XviD 73
Audio #1
ID : 1
Format : AC-3
Format/Info : Audio Coding 3
Mode extension : CM (complete main)
Format settings, Endianness : Big
Codec ID : 2000
Duration : 1h 37mn
Bit rate mode : Constant
Bit rate : 448 Kbps
Channel count : 6 channels
Channel positions : Front: L C R, Side: L R, LFE
Sampling rate : 48.0 KHz
Bit depth : 16 bits
Compression mode : Lossy
Stream size : 313 MiB (16%)
Alignment : Split accross interleaves
Interleave, duration : 42 ms (1.00 video frame)
Interleave, preload duration : 500 ms
Audio #2
ID : 2
Format : AC-3
Format/Info : Audio Coding 3
Mode extension : CM (complete main)
Format settings, Endianness : Big
Codec ID : 2000
Duration : 1h 37mn
Bit rate mode : Constant
Bit rate : 448 Kbps
Channel count : 6 channels
Channel positions : Front: L C R, Side: L R, LFE
Sampling rate : 48.0 KHz
Bit depth : 16 bits
Compression mode : Lossy
Stream size : 313 MiB (16%)
Alignment : Split accross interleaves
Interleave, duration : 42 ms (1.00 video frame)
Interleave, preload duration : 500 ms

Скриншоты

--Час пик 2 / Rush Hour 2-- Год выпуска: 2002
Производство: США
Жанр: комедия, боевик
Продолжительность: 01:29:38-Перевод: Авторский (одноголосый, закадровый) Гаврилов-Субтитры: отсутствуют
Режиссер: Бретт Ратнер / Brett Ratner
В ролях: Джеки Чан, Крис Такер, Джон Лоун, Цзыи Чжан, Розелин Санчес, Алан Кинг, Харрис Юлин, Кеннет Цан, Лиза ЛоЦицеро, Мей Меланкон, Мэгги Кью, Патриция Чан, Гелберт Колома, Люси Лин, Синди Лу, Уинг Сэнг Пэнг, Линг Вонг Мей, Уильям Тюен, Шоун Перетц, Одри Куок, Эрни Рейес мл., Джереми Пивен, Верена Мей, Джоэль МакКиннон Миллер, Анджела Литтл, Джулия Шульц, Сол Рубинек, Джанни Руссо, Джеймс Дж. Чанг, Майкл Чоу, Тереза Лин, Таня Ньюболд, Мэттью Бэрри, Джеймс С. Дьюк, Филип Бэйкер Холл--Описание: На волне успеха первого "Часа пик", по персонажам, созданным сценаристом первого, Россом Ла Манна, режиссер Бретт Рэтнер сделала сиквел "Час пик 2" с теми же героями: Ли и Картером (Джеки Чаном и Крисом Такером). Чтобы не терять время зря, сразу после титров взрывается целый этаж большого здания, а женщина в очках спокойно говорит: "Звоните в полицию". Джеки Чан и Крис Такер в это время в самом распрекрасном настроении, напевая, едут в машине. Они уже третий день в Гонкоге, "гоняются за всякой шпаной" и уже ссорятся даже из-за пластинки "Beach Boys". Ребята в отпуске, и Крис хочет "мушу", то бишь женщина. В этот момент раздается звонок мобильного, и Джеки узнает, что в посольстве США взорвана бомба, погибли два американских переводчика. Предположительно, это дело рук Рикки Тана, так как вся его триада в этот день торчит в клубе. Чан от дела не отказывается, но скрывает от Криса, что в клуб они идут отдыхать, а не в интересах расследования. Так начинаются приключения в этом комедийном боевике в смертельно опасной схватке с прекрасной убийцей (Дзань Дзий) и таинственным гангстером (Джон Лоун). Если Вам понравился первый развлекательный блокбастер, то Вы и этот, вряд ли, пропустите..--Качество видео: HDTVRip
Контейнер: AVI
Видео кодек: XviD
Аудио кодек: AC3
Видео: 720x304 (2.37:1), 23.976 fps, XviD build 73 ~2082 kbps avg, 0.40 bit/pixel-Аудио : 48 kHz, AC3 Dolby Digital, 3/2 (L,C,R,l,r) + LFE ch, ~448 kbps - Гаврилов-

Доп. информация

РИП
За исходник HDTVRip 720p спасибо igorexa2 (Кинозал)

Кванты

I frames: 1393 frames, size = 40378/56247602, quants = 2 / 2.00 / 2
P frames: 65328 frames, size = 13514/882891406, quants = 2 / 2.00 / 2
B frames: 62233 frames, size = 7412/461296750, quants = 2 / 2.00 / 2

Media Info

General
Complete name : G:\На пиратку\! не розданные\Chas.Pik.2.2001.HDTVRip.Gavrilov_byGross.avi
Format : AVI
Format/Info : Audio Video Interleave
File size : 1.59 GiB
Duration : 1h 29mn
Overall bit rate : 2 540 Kbps
Writing application : VirtualDubMod 1.5.10.2 (build 2540/release)
Writing library : VirtualDubMod build 2540/release
Video
ID : 0
Format : MPEG-4 Visual
Format profile : Advanced [email protected]
Format settings, BVOP : Yes
Format settings, QPel : No
Format settings, GMC : No warppoints
Format settings, Matrix : Custom
Codec ID : XVID
Codec ID/Hint : XviD
Duration : 1h 29mn
Bit rate : 2 083 Kbps
Width : 720 pixels
Height : 304 pixels
Display aspect ratio : 2.35:1
Frame rate : 23.976 fps
Color space : YUV
Chroma subsampling : 4:2:0
Bit depth : 8 bits
Scan type : Progressive
Compression mode : Lossy
Bits/(Pixel*Frame) : 0.397
Stream size : 1.30 GiB (82%)
Writing library : XviD 73
Audio
ID : 1
Format : AC-3
Format/Info : Audio Coding 3
Mode extension : CM (complete main)
Format settings, Endianness : Big
Codec ID : 2000
Duration : 1h 29mn
Bit rate mode : Constant
Bit rate : 448 Kbps
Channel count : 6 channels
Channel positions : Front: L C R, Side: L R, LFE
Sampling rate : 48.0 KHz
Bit depth : 16 bits
Compression mode : Lossy
Stream size : 287 MiB (18%)
Alignment : Split accross interleaves
Interleave, duration : 42 ms (1.00 video frame)
Interleave, preload duration : 500 ms

Скриншоты

-
Яндекс.Метрика
Рейтинг@Mail.ru