Темный рыцарь / The Dark Knight (Кристофер Нолан/Christopher Nolan) [Боевик, Криминал, Драма, BDRip] (2005-2012) [Трилогия]

 

Создавать темы 27-Апр-2014 07:35

Темный рыцарь / The Dark Knight [Трилогия]-- Жанр: Боевик, Криминал, Драма
Года производства: 2005, 2008, 2012
Произведено: США, Великобритания
Продолжительность: 01:20:03; 02:32:13; 02:44:33ОписаниеБэтмен: (англ. Batman, изначально Bat-man (Бэт-мен), но со временем изменилось на the Batman: в пер. — человек-летучая мышь) — вымышленный персонаж изданий DC Comics, супергерой, впервые появившийся в 27-м выпуске Detective Comics в мае 1939 года. С тех пор, наряду с Суперменом и Человеком-пауком, один из самых популярных и известных героев. Бетмен был создан художником Бобом Кейном в соавторстве с писателем Биллом Фингером, хотя только Кейн выступает официально автором персонажа.
В отличие от многих супергероев, Бeтмен не обладает какими-либо сверхчеловеческими силами или способностями; он полагается на ум, смекалку, технику и физическую силу. Также Бeтмен входит в состав «Лиги справедливости». Место действия историй о Бeтмене — Готэм-сити.

Бэтмен: Начало

Бэтмен: Начало / Batman BeginsОригинальное название: Batman Begins
Год выпуска: 2005
Жанр: Боевик, Криминал, Драма
Производство: США, Великобритания
Описание фильма:
В детстве юный наследник огромного состояния Брюс Уэйн оказался свидетелем убийства своих родителей, и тогда он решил бороться с преступностью. Спустя годы он отправляется в путешествие по миру, чтобы найти способ восстановить справедливость. Обучение у мудрого наставника боевым искусствам дает ему силу и смелость. Вернувшись в родной город, Уэйн становится Бэтменом и ведет борьбу со злом.

Режиссер: Кристофер Нолан
Актеры: Кристиан Бэйл, Кэти Холмс, Майкл Кейн, Киллиан Мёрфи, Том Уилкинсон, Лиам Нисон, Кен Ватанабе, Гари Олдман, Морган Фриман, Рутгер Хауэр
Продолжительность: 02:20:03
Качество видео: BDRip
Перевод: Дублированный
Язык субтитров: Rus (полные), Eng (полные)
Вид субтитров: Вшитые
Видеокодек: MPEG-4 AVC/H.264
Битрейт видео: ~10000 kb/s
Размер кадра: 1280*536
Аудио 1 Русский: AC3 5.1, 640 kb/s
Аудио 2 Английский: AC3 5.1, 640 kb/s
Сэмпл: Ссылка

MI

Общее
Уникальный идентификатор : 241806221971855120204076904218016542787 (0xB5EA2F3271D47F70A017DB52424AF043)
Формат : Matroska
Версия формата : Version 4 / Version 2
Размер файла : 11,0 Гбайт
Продолжительность : 2 ч. 20 м.
Общий поток : 11,3 Мбит/сек
Дата кодирования : UTC 2014-04-23 22:54:59
Программа кодирования : mkvmerge v6.9.1 ('Blue Panther') 64bit built on Apr 18 2014 18:23:38
Библиотека кодирования : libebml v1.3.0 + libmatroska v1.4.1
Attachment : Yes
Видео
Идентификатор : 1
Формат : AVC
Формат/Информация : Advanced Video Codec
Профиль формата : [url=mailto:[email protected]][email protected][/url]
Параметр CABAC формата : Да
Параметр ReFrames формата : 9 кадров
Идентификатор кодека : V_MPEG4/ISO/AVC
Продолжительность : 2 ч. 20 м.
Битрейт : 10000 Кбит/сек
Ширина : 1280 пикселей
Высота : 536 пикселей
Соотношение сторон : 2,40:1
Режим частоты кадров : Постоянный
Частота кадров : 59,880 кадров/сек
Частота кадров в оригинале : 59,940 кадров/сек
Цветовое пространство : YUV
Субдискретизация насыщенности : 4:2:0
Битовая глубина : 8 бит
Тип развёртки : Прогрессивная
Бит/(Пиксели*Кадры) : 0.243
Размер потока : 9,56 Гбайт (87%)
Библиотека кодирования : x264 core 130 r2273 b3065e6
Настройки программы : cabac=1 / ref=9 / deblock=1:-1:-1 / analyse=0x3:0 / me=umh / subme=9 / psy=1 / psy_rd=1.00:0.10 / mixed_ref=1 / me_range=24 / chroma_me=0 / trellis=1 / 8x8dct=1 / cqm=0 / deadzone=21,11 / fast_pskip=0 / chroma_qp_offset=-3 / threads=6 / lookahead_threads=1 / sliced_threads=0 / nr=0 / decimate=0 / interlaced=0 / bluray_compat=0 / constrained_intra=0 / bframes=6 / b_pyramid=2 / b_adapt=2 / b_bias=0 / direct=3 / weightb=1 / open_gop=0 / weightp=2 / keyint=250 / keyint_min=25 / scenecut=40 / intra_refresh=0 / rc=2pass / mbtree=0 / bitrate=10000 / ratetol=1.0 / qcomp=0.60 / qpmin=0 / qpmax=69 / qpstep=4 / cplxblur=20.0 / qblur=0.5 / ip_ratio=1.40 / pb_ratio=1.30 / aq=1:0.90
Язык : English
Default : Да
Forced : Нет
Аудио #1
Идентификатор : 2
Формат : AC-3
Формат/Информация : Audio Coding 3
Расширение режима : CM (complete main)
Параметр Endianness формата : Big
Идентификатор кодека : A_AC3
Продолжительность : 2 ч. 20 м.
Вид битрейта : Постоянный
Битрейт : 640 Кбит/сек
Каналы : 6 каналов
Расположение каналов : Front: L C R, Side: L R, LFE
Частота : 48,0 КГц
Битовая глубина : 16 бит
Метод сжатия : С потерями
Размер потока : 641 Мбайт (6%)
Заголовок : Dub
Язык : Russian
Default : Да
Forced : Нет
Аудио #2
Идентификатор : 5
Формат : AC-3
Формат/Информация : Audio Coding 3
Расширение режима : CM (complete main)
Параметр Endianness формата : Big
Идентификатор кодека : A_AC3
Продолжительность : 2 ч. 20 м.
Вид битрейта : Постоянный
Битрейт : 640 Кбит/сек
Каналы : 6 каналов
Расположение каналов : Front: L C R, Side: L R, LFE
Частота : 48,0 КГц
Битовая глубина : 16 бит
Метод сжатия : С потерями
Размер потока : 641 Мбайт (6%)
Заголовок : Original
Язык : English
Default : Нет
Forced : Нет
Текст #1
Идентификатор : 3
Формат : UTF-8
Идентификатор кодека : S_TEXT/UTF8
Идентификатор кодека/Информация : UTF-8 Plain Text
Заголовок : Full
Язык : Russian
Default : Нет
Forced : Нет
Текст #2
Идентификатор : 4
Формат : UTF-8
Идентификатор кодека : S_TEXT/UTF8
Идентификатор кодека/Информация : UTF-8 Plain Text
Заголовок : Full
Язык : English
Default : Нет
Forced : Нет
Меню
00:00:00.000 : en:You're Practice
00:03:39.100 : en:More Than Just a Man
00:07:31.133 : en:What Do You Fear?
00:11:33.367 : en:Tragedy
00:16:14.667 : en:The Will to Act
00:19:43.067 : en:This House
00:24:17.768 : en:Not One of Your Good People
00:28:23.202 : en:Carmine Falcone
00:31:23.702 : en:Embrace Your Fear
00:35:51.835 : en:Gotham Must Be Destroyed
00:38:22.335 : en:Monastery Mayhem
00:41:12.535 : en:Incorruptible Symbol
00:43:05.469 : en:Nest of Bats
00:46:55.303 : en:Welcome Home
00:49:40.904 : en:Applied Sciences
00:53:23.071 : en:Gordon's Visitor
00:55:52.071 : en:Does It Come in Black?
00:57:58.972 : en:Secrets of Scary People
01:03:28.439 : en:Rattle the Cages
01:05:49.040 : en:Missing Weapon
01:08:35.040 : en:More Inside
01:11:21.707 : en:Crane's Mask
01:13:15.041 : en:Do I Look Like a Cop?
01:15:04.208 : en:Lighten Up
01:19:46.109 : en:Work to Do
01:23:49.576 : en:Arkham's Basement Secrets
01:28:57.676 : en:Winged Backup
01:32:31.243 : en:Tumbler on the Roof
01:37:43.276 : en:The Monster of Yours
01:40:27.743 : en:Dual Identities
01:45:03.243 : en:Purging Fire
01:49:25.577 : en:Inferno Rescue
01:51:22.744 : en:Spread the Word: Panic
01:54:42.712 : en:What Defines Me
01:58:04.112 : en:Catching a Train
02:01:48.212 : en:Not Kill But Not Save
02:04:53.879 : en:New Owner
02:05:59.646 : en:This Is Your Mask
02:09:10.980 : en:Calling Card
02:10:49.447 : en:End Credits
Скриншоты:

Темный рыцарь

Темный рыцарь / The Dark KnightОригинальное название: The Dark Knight
Год выпуска: 2008
Жанр: Боевик, Криминал, Драма
Производство: США, Великобритания
Описание фильма:
Бэтмен поднимает ставки в войне с криминалом. С помощью лейтенанта Джима Гордона и прокурора Харви Дента он намерен очистить улицы от преступности, отравляющей город. Сотрудничество оказывается эффективным, но скоро они обнаружат себя посреди хаоса, развязанного восходящим криминальным гением, известным испуганным горожанам под именем Джокер.
Режиссер: Кристофер Нолан
Актеры: Кристиан Бэйл, Хит Леджер, Аарон Экхарт, Мэгги Джилленхол, Гари Олдман, Майкл Кейн, Морган Фриман, Чин Хань, Нестор Карбонелл, Эрик Робертс
Продолжительность: 02:32:13
Качество видео: BDRip
Перевод: Дублированный
Язык субтитров: Rus (полные), Eng (полные)
Вид субтитров: Вшитые
Видеокодек: MPEG-4 AVC/H.264
Битрейт видео: ~10000 kb/s
Размер кадра: 1280*720
Аудио 1 Русский: AC3 5.1, 448 kb/s
Аудио 2 Английский: AC3 5.1, 640 kb/s
Сэмпл: Ссылка

MI

Общее
Уникальный идентификатор : 180965785311185717380744791455238609444 (0x8824BE136F0E4CB497145EB658CE5A24)
Формат : Matroska
Версия формата : Version 4 / Version 2
Размер файла : 11,8 Гбайт
Продолжительность : 2 ч. 32 м.
Общий поток : 11,1 Мбит/сек
Дата кодирования : UTC 2014-04-24 08:22:08
Программа кодирования : mkvmerge v6.9.1 ('Blue Panther') 64bit built on Apr 18 2014 18:23:38
Библиотека кодирования : libebml v1.3.0 + libmatroska v1.4.1
Видео
Идентификатор : 1
Формат : AVC
Формат/Информация : Advanced Video Codec
Профиль формата : [url=mailto:[email protected]][email protected][/url]
Параметр CABAC формата : Да
Параметр ReFrames формата : 9 кадров
Идентификатор кодека : V_MPEG4/ISO/AVC
Продолжительность : 2 ч. 32 м.
Битрейт : 10000 Кбит/сек
Ширина : 1280 пикселей
Высота : 720 пикселей
Соотношение сторон : 16:9
Режим частоты кадров : Постоянный
Частота кадров : 59,880 кадров/сек
Частота кадров в оригинале : 59,940 кадров/сек
Цветовое пространство : YUV
Субдискретизация насыщенности : 4:2:0
Битовая глубина : 8 бит
Тип развёртки : Прогрессивная
Бит/(Пиксели*Кадры) : 0.181
Размер потока : 10,4 Гбайт (88%)
Библиотека кодирования : x264 core 130 r2273 b3065e6
Настройки программы : cabac=1 / ref=9 / deblock=1:-1:-1 / analyse=0x3:0 / me=umh / subme=9 / psy=1 / psy_rd=1.00:0.10 / mixed_ref=1 / me_range=24 / chroma_me=0 / trellis=1 / 8x8dct=1 / cqm=0 / deadzone=21,11 / fast_pskip=0 / chroma_qp_offset=-3 / threads=6 / lookahead_threads=1 / sliced_threads=0 / nr=0 / decimate=0 / interlaced=0 / bluray_compat=0 / constrained_intra=0 / bframes=6 / b_pyramid=2 / b_adapt=2 / b_bias=0 / direct=3 / weightb=1 / open_gop=0 / weightp=2 / keyint=250 / keyint_min=25 / scenecut=40 / intra_refresh=0 / rc=2pass / mbtree=0 / bitrate=10000 / ratetol=1.0 / qcomp=0.60 / qpmin=0 / qpmax=69 / qpstep=4 / cplxblur=20.0 / qblur=0.5 / ip_ratio=1.40 / pb_ratio=1.30 / aq=1:0.90
Язык : English
Default : Да
Forced : Нет
Аудио #1
Идентификатор : 2
Формат : AC-3
Формат/Информация : Audio Coding 3
Расширение режима : CM (complete main)
Параметр Endianness формата : Big
Идентификатор кодека : A_AC3
Продолжительность : 2 ч. 32 м.
Вид битрейта : Постоянный
Битрейт : 448 Кбит/сек
Каналы : 6 каналов
Расположение каналов : Front: L C R, Side: L R, LFE
Частота : 48,0 КГц
Битовая глубина : 16 бит
Метод сжатия : С потерями
Размер потока : 488 Мбайт (4%)
Заголовок : Dub
Язык : Russian
Default : Да
Forced : Нет
Аудио #2
Идентификатор : 5
Формат : AC-3
Формат/Информация : Audio Coding 3
Расширение режима : CM (complete main)
Параметр Endianness формата : Big
Идентификатор кодека : A_AC3
Продолжительность : 2 ч. 32 м.
Вид битрейта : Постоянный
Битрейт : 640 Кбит/сек
Каналы : 6 каналов
Расположение каналов : Front: L C R, Side: L R, LFE
Частота : 48,0 КГц
Битовая глубина : 16 бит
Метод сжатия : С потерями
Размер потока : 697 Мбайт (6%)
Заголовок : Original
Язык : English
Default : Нет
Forced : Нет
Текст #1
Идентификатор : 3
Формат : UTF-8
Идентификатор кодека : S_TEXT/UTF8
Идентификатор кодека/Информация : UTF-8 Plain Text
Заголовок : Full
Язык : Russian
Default : Нет
Forced : Нет
Текст #2
Идентификатор : 4
Формат : UTF-8
Идентификатор кодека : S_TEXT/UTF8
Идентификатор кодека/Информация : UTF-8 Plain Text
Заголовок : Full
Язык : English
Default : Нет
Forced : Нет
Меню
00:00:00.000 : en:Robbery Gone Stranger
00:06:23.966 : en:Intimidate Mode
00:10:36.260 : en:Unknown Limits
00:13:52.581 : en:Last Game in Town
00:17:54.198 : en:Protector's Mantle
00:21:39.339 : en:Kill the Batman
00:26:10.026 : en:Hong Kong Holiday
00:29:36.274 : en:Why so Serious?
00:31:42.483 : en:Landing Lau
00:37:49.058 : en:Men of their Word
00:43:34.069 : en:Hero with a Face
00:46:39.546 : en:Somebody with Access
00:48:57.768 : en:Tonight's Entertainment
00:53:19.446 : en:Watch the World Burn
00:57:15.640 : en:Your Plan is Blackmail?
00:59:26.354 : en:Dishonour Guard
01:03:59.627 : en:No Rules
01:08:23.557 : en:Right Choice
01:10:48.327 : en:I am the Batman
01:14:24.918 : en:Trip to Country
01:18:05.639 : en:Bat-pod Faceoff
01:22:22.437 : en:We Got Him
01:24:48.583 : en:Good Cop, Bad Cop
01:30:48.442 : en:Two-way Race
01:34:04.972 : en:Burned Down
01:39:57.783 : en:Harvey Two-Face
01:42:05.494 : en:Better Class of Criminal
01:44:59.918 : en:Watch Out
01:47:00.872 : en:Agent of Chaos
01:51:09.913 : en:Hospital Boom
01:54:14.639 : en:Too Much Power
01:57:04.017 : en:Unlucky
02:00:14.248 : en:Ferry Scary
02:03:37.576 : en:Prewitt Building Siege
02:09:07.614 : en:Verge of Fireworks
02:12:27.314 : en:Battle for Gotham's Soul
02:15:22.781 : en:One Pointing the Gun
02:19:58.681 : en:Dark Knight
02:24:26.658 : en:End Credits
Скриншоты:

Темный рыцарь: Возрождение легенды

Темный рыцарь: Возрождение легенды / The Dark Knight RisesОригинальное название: The Dark Knight Rises
Год выпуска: 2012
Жанр: Боевик, Криминал, Драма
Производство: США, Великобритания
Описание фильма:
Восемь лет назад Бэтмен растворился в ночи, превратившись из героя в беглеца. Приняв на себя вину за смерть прокурора Харви Дента, он пожертвовал всем. Вместе с комиссаром Гордоном они решили, что так будет лучше для всех. Пока преступность была раздавлена антикриминальным актом Дента, ложь действовала.
Тем не менее, еще опаснее становится появление нового врага Бэйна, чье лицо закрыто маской. Он разворачивает в Готэме чудовищную деятельность, и это вынуждает Брюса Уэйна выйти из импровизированного изгнания. Однако даже надев свой костюм, Бэтмен может проиграть Бэйну. Но с появлением хитрой воровки по прозвищу Женщина — Кошка с загадочным прошлым всё меняется.

Режиссер: Кристофер Нолан
Актеры: Кристиан Бэйл, Гари Олдман, Том Харди, Джозеф Гордон-Левитт, Энн Хэтэуэй, Марион Котийяр, Морган Фриман, Майкл Кейн, Мэттью Модайн, Алон Абутбул
Продолжительность: 02:44:33
Качество видео: BDRip
Перевод: Дублированный
Язык субтитров:Rus (форс.), Rus (полные), Eng (полные)
Вид субтитров: Вшитые
Видеокодек: MPEG-4 AVC/H.264
Битрейт видео: ~10000 kb/s
Размер кадра: 1280*720
Аудио 1 Русский: AC3 5.1, 640 kb/s
Аудио 2 Английский: AC3 5.1, 640 kb/s
Сэмпл: Ссылка

MI

Общее
Уникальный идентификатор : 225254027886624892995024639856669297518 (0xA97659057E3F282A92CAB23D1F430B6E)
Формат : Matroska
Версия формата : Version 4 / Version 2
Размер файла : 13,0 Гбайт
Продолжительность : 2 ч. 44 м.
Общий поток : 11,3 Мбит/сек
Дата кодирования : UTC 2014-04-25 05:37:40
Программа кодирования : mkvmerge v6.9.1 ('Blue Panther') 64bit built on Apr 18 2014 18:23:38
Библиотека кодирования : libebml v1.3.0 + libmatroska v1.4.1
Видео
Идентификатор : 1
Формат : AVC
Формат/Информация : Advanced Video Codec
Профиль формата : [url=mailto:[email protected]][email protected][/url]
Параметр CABAC формата : Да
Параметр ReFrames формата : 9 кадров
Идентификатор кодека : V_MPEG4/ISO/AVC
Продолжительность : 2 ч. 44 м.
Битрейт : 10000 Кбит/сек
Ширина : 1280 пикселей
Высота : 720 пикселей
Соотношение сторон : 16:9
Режим частоты кадров : Постоянный
Частота кадров : 59,880 кадров/сек
Частота кадров в оригинале : 59,940 кадров/сек
Цветовое пространство : YUV
Субдискретизация насыщенности : 4:2:0
Битовая глубина : 8 бит
Тип развёртки : Прогрессивная
Бит/(Пиксели*Кадры) : 0.181
Размер потока : 11,2 Гбайт (87%)
Библиотека кодирования : x264 core 130 r2273 b3065e6
Настройки программы : cabac=1 / ref=9 / deblock=1:-1:-1 / analyse=0x3:0 / me=umh / subme=9 / psy=1 / psy_rd=1.00:0.10 / mixed_ref=1 / me_range=24 / chroma_me=0 / trellis=1 / 8x8dct=1 / cqm=0 / deadzone=21,11 / fast_pskip=0 / chroma_qp_offset=-3 / threads=6 / lookahead_threads=1 / sliced_threads=0 / nr=0 / decimate=0 / interlaced=0 / bluray_compat=0 / constrained_intra=0 / bframes=6 / b_pyramid=2 / b_adapt=2 / b_bias=0 / direct=3 / weightb=1 / open_gop=0 / weightp=2 / keyint=250 / keyint_min=25 / scenecut=40 / intra_refresh=0 / rc=2pass / mbtree=0 / bitrate=10000 / ratetol=1.0 / qcomp=0.60 / qpmin=0 / qpmax=69 / qpstep=4 / cplxblur=20.0 / qblur=0.5 / ip_ratio=1.40 / pb_ratio=1.30 / aq=1:0.90
Язык : English
Default : Да
Forced : Нет
Аудио #1
Идентификатор : 2
Формат : AC-3
Формат/Информация : Audio Coding 3
Расширение режима : CM (complete main)
Параметр Endianness формата : Big
Идентификатор кодека : A_AC3
Продолжительность : 2 ч. 44 м.
Вид битрейта : Постоянный
Битрейт : 640 Кбит/сек
Каналы : 6 каналов
Расположение каналов : Front: L C R, Side: L R, LFE
Частота : 48,0 КГц
Битовая глубина : 16 бит
Метод сжатия : С потерями
Размер потока : 753 Мбайт (6%)
Заголовок : Dub
Язык : Russian
Default : Да
Forced : Нет
Аудио #2
Идентификатор : 3
Формат : AC-3
Формат/Информация : Audio Coding 3
Расширение режима : CM (complete main)
Параметр Endianness формата : Big
Идентификатор кодека : A_AC3
Продолжительность : 2 ч. 44 м.
Вид битрейта : Постоянный
Битрейт : 640 Кбит/сек
Каналы : 6 каналов
Расположение каналов : Front: L C R, Side: L R, LFE
Частота : 48,0 КГц
Битовая глубина : 16 бит
Метод сжатия : С потерями
Размер потока : 753 Мбайт (6%)
Заголовок : Original
Язык : English
Default : Нет
Forced : Нет
Текст #1
Идентификатор : 4
Формат : UTF-8
Идентификатор кодека : S_TEXT/UTF8
Идентификатор кодека/Информация : UTF-8 Plain Text
Заголовок : Forced
Язык : Russian
Default : Да
Forced : Нет
Текст #2
Идентификатор : 5
Формат : UTF-8
Идентификатор кодека : S_TEXT/UTF8
Идентификатор кодека/Информация : UTF-8 Plain Text
Заголовок : Full
Язык : Russian
Default : Нет
Forced : Нет
Текст #3
Идентификатор : 6
Формат : UTF-8
Идентификатор кодека : S_TEXT/UTF8
Идентификатор кодека/Информация : UTF-8 Plain Text
Заголовок : Full
Язык : English
Default : Нет
Forced : Нет
Меню
00:00:00.000 : en:Chapter 01
00:09:02.833 : en:Chapter 02
00:19:08.522 : en:Chapter 03
00:30:15.855 : en:Chapter 04
00:41:08.799 : en:Chapter 05
00:51:09.524 : en:Chapter 06
01:00:29.667 : en:Chapter 07
01:10:04.033 : en:Chapter 08
01:20:13.475 : en:Chapter 09
01:31:00.580 : en:Chapter 10
01:39:24.291 : en:Chapter 01
01:48:58.490 : en:Chapter 11
02:00:21.589 : en:Chapter 12
02:10:47.673 : en:Chapter 12
02:19:12.635 : en:Chapter 13
02:30:14.630 : en:Chapter 14
02:36:50.526 : en:Chapter 15
Скриншоты:
Яндекс.Метрика
Рейтинг@Mail.ru