Мистериум. Начало / Женщина в клетке / Kvinden i buret (2013) HDRip

 

Создавать темы 26-Апр-2014 08:44

-Мистериум. Начало / Женщина в клетке / Kvinden i buret (2013) HDRip«Intet er glemt for altid»- Год выпуска: 2013
Производство: Дания, Германия, Швеция
Жанр: Триллер, криминал, детектив
Режиссер: Миккель Нёргор
Продюсер: Петер Ольбек Йенсен, Луиза Вест, Йонас Баггер
Актеры: Николай Ли Каас, Фарес Фарес, Соня Рихтер, Клаус Маак Бансен, Расмус Ботофт, Эрнст Бойе, Кеннет Кармон
Описание фильма:
Экранизация приключений детективов Карла Мерке и Асада, работающих в Департаменте Q, занимающемся «глухарями». Взявшись за дело пятилетней давности об исчезновении женщины по имени Мерет они внезапно выходят на след маньяка-психопата, но преследуя его по всей стране, все равно на шаг отстают.
Перевод: Многоголосый закадровый, профессиональный (Позитив, по заказу Русского Репортажа)
Субтитры: Отсутствуют
Возраст: 16+

Дата мировой премьеры: 10 августа 2013
Дата российской премьеры: 20 февраля 2014, «Русский Репортаж»
Продолжительность: 01:36:33
Качество видео: HDRip
Видеокодек: XviD
Битрейт видео: ~1895 Kbps
Размер кадра: 720x304, 24,000 fps
Аудио: AC3, 48.0 KHz, 6 ch, 448 Kbps, CBR (Русский, Многоголосый закадровый)

MediaInfo:

Формат                                   : AVI
Формат/Информация                        : Audio Video Interleave
Размер файла                             : 1,59 Гбайт
Продолжительность                        : 1 ч. 36 м.
Общий поток                              : 2352 Кбит/сек
Название фильма                          : Kvinden i buret
Программа кодирования                    : VirtualDubMod 1.5.10.3 (build 2550/release)
Видео
Идентификатор                            : 0
Формат                                   : MPEG-4 Visual
Профиль формата                          : Advanced [email protected]
Параметр BVOP формата                    : 1
Параметр QPel формата                    : Нет
Параметр GMC формата                     : Без точки перехода
Параметр матрицы формата                 : Выборочная
Идентификатор кодека                     : XVID
Идентификатор кодека/Подсказка           : XviD
Продолжительность                        : 1 ч. 36 м.
Битрейт                                  : 1895 Кбит/сек
Ширина                                   : 720 пикселей
Высота                                   : 304 пикселя
Соотношение сторон                       : 2,35:1
Частота кадров                           : 24,000 кадра/сек
Цветовое пространство                    : YUV
Субдискретизация насыщенности            : 4:2:0
Битовая глубина                          : 8 бит
Тип развёртки                            : Прогрессивная
Метод сжатия                             : С потерями
Бит/(Пиксели*Кадры)                      : 0.361
Размер потока                            : 1,28 Гбайт (81%)
Библиотека кодирования                   : XviD 73
Аудио
Идентификатор                            : 1
Формат                                   : AC-3
Формат/Информация                        : Audio Coding 3
Расширение режима                        : CM (complete main)
Параметр Endianness формата              : Big
Идентификатор кодека                     : 2000
Продолжительность                        : 1 ч. 36 м.
Вид битрейта                             : Постоянный
Битрейт                                  : 448 Кбит/сек
Каналы                                   : 6 каналов
Расположение каналов                     : Front: L C R, Side: L R, LFE
Частота                                  : 48,0 КГц
Битовая глубина                          : 16 бит
Метод сжатия                             : С потерями
Размер потока                            : 309 Мбайт (19%)
Выравнивание                             : Разделение по промежуткам
Продолжительность промежутка             : 42  мс. (1,00 видеокадр)
Время предзагрузки промежутка            : 500  мс.
Скриншоты:
-
Время раздачи: 24/7 (до 10 скачавших)
Яндекс.Метрика
Рейтинг@Mail.ru