[ Сегодня на трекере фрилич! Идет свободное скачивание без начисления Download ]

Дети капитана Гранта (Владимир Вайншток) [1936 г., приключения, DVDRip]

 

Создавать темы 26-Апр-2014 06:44

-Дети капитана Гранта-- Производство: СССР, Мосфильм
Режиссер: Владимир Вайншток
Жанр: приключения
Год выпуска: 1936 г.
Продолжительность: 01:24:34
В ролях: Юрий Юрьев, Ольга Базанова, Яков Сегель, Мария Стрелкова, Николай Черкасов, Николай Витовтов, Иван Чувелев, Михаил Романов, Николай Мичурин-Описание: Отважная команда друзей отправляется на шхуне «Дункан» на поиски отважного путешественника капитана Гранта, потерпевшего крушение где-то в южном полушарии. Смелые путешественники пересекают Южную Америку и Австралию, достигают берегов Новой Зеландии и доказывают, что «кто ищет, тот всегда найдет»!-Качество видео: DVDRip
Контейнер: AVI
Видео кодек: DivX
Аудио кодек: MP3
Видео: 704x528; 1681 kbps; 25 fps; 0.181 bit/pixel
Аудио: 128 kbps; 2 ch; 48 kHz
Cубтитры: отсутствуют

Media Info

Общее
Полное имя : E:\Torrent\Deti_kapitana_Granta_[Pirat.ca].torrent.avi
Формат : AVI
Формат/Информация : Audio Video Interleave
Размер файла : 1,07 Гбайт
Продолжительность : 1 ч. 24 м.
Общий поток : 1819 Кбит/сек
Программа кодирования : VirtualDubMod 1.5.10.3 (build 2550/release)
Библиотека кодирования : VirtualDubMod build 2550/release
Видео
Идентификатор : 0
Формат : MPEG-4 Visual
Параметр BVOP формата : 1
Параметр QPel формата : Нет
Параметр GMC формата : Без точки перехода
Параметр матрицы формата : Default (MPEG)
Режим смешивания : Сжатый битовый поток
Идентификатор кодека : DX50
Идентификатор кодека/Подсказка : DivX 5
Продолжительность : 1 ч. 24 м.
Битрейт : 1681 Кбит/сек
Ширина : 704 пикселя
Высота : 528 пикселей
Соотношение сторон : 4:3
Частота кадров : 25,000 кадров/сек
Цветовое пространство : YUV
Субдискретизация насыщенности : 4:2:0
Битовая глубина : 8 бит
Тип развёртки : Прогрессивная
Метод сжатия : С потерями
Бит/(Пиксели*Кадры) : 0.181
Размер потока : 1017 Мбайт (92%)
Библиотека кодирования : DivX 6.8.5 (UTC 2009-08-20)
Аудио
Идентификатор : 1
Формат : MPEG Audio
Версия формата : Version 1
Профиль формата : Layer 3
Режим : Joint stereo
Идентификатор кодека : 55
Идентификатор кодека/Подсказка : MP3
Продолжительность : 1 ч. 24 м.
Вид битрейта : Постоянный
Битрейт : 128 Кбит/сек
Каналы : 2 канала
Частота : 48,0 КГц
Метод сжатия : С потерями
Размер потока : 77,4 Мбайт (7%)
Выравнивание : Разделение по промежуткам
Продолжительность промежутка : 40 мс. (1,00 видеокадр)
Время предзагрузки промежутка : 500 мс.

Скриншоты

Раздача

Раздача с 14.00 до 2.30 (время московское)
Яндекс.Метрика
Рейтинг@Mail.ru