Криминальная Россия. Развязка. Кровавое золото (2014.04.24) SATRip

 

Создавать темы 25-Апр-2014 05:26

- Криминальная Россия. Развязка. Кровавое золото (2014.04.24) SATRip - Режиссер / Телекомпания: 5
Русское название: Криминальная Россия
Год выпуска: 2014
Жанр: Документальный, расследование, криминал
Выпущено: Россия, ООО "Киностудия "Версия"
Описание:
Каждый фильм телевизионного сериала "Криминальная Россия" представляет собой законченную документальную историю,повествующую о расследовании российскими правоохранительными органами конкретного уголовного преступления. Как правило,речь идет о наиболее громких и резонансных делах,раскрытых в новейшей истории Российской Федерации.В каждой серии зритель вместе с реальными следователями и сыщиками следит за перипетиями расследования дела и поиском преступников,узнает обо всех неизвестных деталях совершенного преступления,его мотивы и историю,открывает для себя характеры героев-как преступников,так и сотрудников правоохранительных органов.
В выпуске: До начала 90-х годов прошлого века мало кто знал о тихом провинциальном городке Касимов в Рязанской области. Однако когда в нем построили крупнейший завод по производству золота, Касимов стал регулярно появляться в криминальных сводках федеральных каналов. Местных жителей убивали десятками. И виной всему - золото! Осужденный пожизненно Виталий Курбатов - золотой король - тот самый, что организовал хищение более 800 кг драгметалла, рассказывает, как все было на самом деле. Однако он и сам не понимает, почему золото никому не принесло счастье. И как так получилось, что после его ареста жена много лет работала... уборщицей.
Режиссер: Александр Ярославцев
Продолжительность: ~ 00:38:57
Видеокодек: XVID
Битрейт видео: ~1800 kb/s
Размер кадра: 720 x 528
Качество видео: SATRip
Аудиокодек: MP3, 2ch.
Битрейт аудио: 128 kb/s

MediaInfo

Формат : AVI
Формат/Информация : Audio Video Interleave
Размер файла : 540 Мбайт
Продолжительность : 38 м.
Общий поток : 1938 Кбит/сек
Библиотека кодирования : VirtualDub build 32817/release
Видео
Идентификатор : 0
Формат : MPEG-4 Visual
Профиль формата : Advanced [email protected]
Параметр BVOP формата : 2
Параметр QPel формата : Нет
Параметр GMC формата : Без точки перехода
Параметр матрицы формата : Default (MPEG)
Идентификатор кодека : XVID
Идентификатор кодека/Подсказка : XviD
Продолжительность : 38 м.
Битрейт : 1801 Кбит/сек
Ширина : 720 пикселей
Высота : 528 пикселей
Соотношение сторон : 4:3
Частота кадров : 25,000 кадров/сек
Цветовое пространство : YUV
Субдискретизация насыщенности : 4:2:0
Битовая глубина : 8 бит
Тип развёртки : Прогрессивная
Метод сжатия : С потерями
Бит/(Пиксели*Кадры) : 0.189
Размер потока : 502 Мбайт (93%)
Библиотека кодирования : XviD 1.2.1 (UTC 2008-12-04)
Аудио
Идентификатор : 1
Формат : MPEG Audio
Версия формата : Version 1
Профиль формата : Layer 3
Режим : Joint stereo
Расширение режима : MS Stereo
Идентификатор кодека : 55
Идентификатор кодека/Подсказка : MP3
Продолжительность : 38 м.
Вид битрейта : Постоянный
Битрейт : 128 Кбит/сек
Каналы : 2 канала
Частота : 48,0 КГц
Метод сжатия : С потерями
Размер потока : 35,7 Мбайт (7%)
Выравнивание : Разделение по промежуткам
Продолжительность промежутка : 40 мс. (1,00 видеокадр)
Время предзагрузки промежутка : 500 мс.
Скриншоты:
Время раздачи: 24/7. До первых 5 скачавших.
Яндекс.Метрика
Рейтинг@Mail.ru