[ Сегодня на трекере фрилич! Идет свободное скачивание без начисления Download ]

Спасти мистера Бэнкса / Saving Mr. Banks (Джон Ли Хэнкок / John Lee Hancock) [2013 г., драма, история, биография, HDRip] Dub [Лицензия]

 

Создавать темы 24-Апр-2014 17:39

-Спасти мистера Бэнкса / Saving Mr. Banks- Производство: США, Великобритания, Австралия / BBC Films, Essential Media & Entertainment, Hopscotch Features
Год выпуска: 2013 г.
Жанр: драма, история, биография
Продолжительность: 02:05:40
Мировая премьера: 20 октября 2013
Российская премьера: 23 января 2014, «WDSSPR»
Дата выхода DVD: 22 апреля 2014, «Уолт Дисней Компани СНГ»
Дата выхода Blu-Ray: 22 апреля 2014, «Уолт Дисней Компани СНГ»-Перевод: Профессиональный (полное дублирование) [Лицензия]-Режиссер: Джон Ли Хэнкок / John Lee Hancock
В ролях: Эмма Томпсон, Том Хэнкс, Пол Джаматти, Джейсон Шварцман, Колин Фаррелл, Энни Роуз Бакли, Рут Уилсон, Брэдли Уитфорд, Б.Дж. Новак, Лили Бигхем-Описание: История постановки классического художественного фильма Disney «Мэри Поппинс».
Когда Уолт Дисней пообещал своим дочерям снять фильм по их любимой книге, сказке Памелы Трэверс «Мэри Поппинс», он даже не подозревал, что на исполнение этого обещания ему понадобится более двадцати лет. В попытке получить права на экранизацию книги, Уолт столкнулся со своенравной и несговорчивой британской писательницей, которая ни в коем случае не хотела, чтобы ее любимая героиня была «испорчена» голливудским подходом к созданию фильмов. Лишь в начале шестидесятых она согласилась лично приехать в Лос-Анджелес и начать переговоры об экранизации. На протяжении двух недель в 1961 году, пока длились переговоры с Памелой Трэверс, Уолт Дисней перепробовал все уловки. Он презентовал идеи и эскизы к фильму, пытался впечатлить писательницу великолепной музыкой, написанной талантливыми композиторами, братьями Шерман, и даже устраивал экскурсии в Диснейленд — однако Трэверс не шла ни на какие уговоры, и знаменитый кинематографист чуть было не отказался от своего замысла.- -Качество видео: HDRip
Контейнер: AVI
Видео кодек: XviD
Аудио кодек: AC3
Видео: 720x304 (2.37:1), 23.976 fps, XviD build 50 ~1881 kbps avg, 0.36 bit/pixel
Аудио: 48 kHz, AC3 Dolby Digital, 3/2 (L,C,R,l,r) + LFE ch, ~448 kbps
Cубтитры: отсутствуют

Media Info

General
Complete name : D:\Saving.Mr.Banks.2013.D.HDRip.avi
Format : AVI
Format/Info : Audio Video Interleave
Format profile : OpenDML
File size : 2.05 GiB
Duration : 2h 5mn
Overall bit rate : 2 336 Kbps
Movie name : Saving.Mr.Banks.2013.D.HDRip
Writing application : VirtualDubMod 1.5.10.3 | www.virtualdub-fr.org || (build 2550/release)
Video
ID : 0
Format : MPEG-4 Visual
Format profile : Advanced [email protected]
Format settings, BVOP : 2
Format settings, QPel : No
Format settings, GMC : No warppoints
Format settings, Matrix : Custom
Codec ID : XVID
Codec ID/Hint : XviD
Duration : 2h 5mn
Bit rate : 1 876 Kbps
Width : 720 pixels
Height : 304 pixels
Display aspect ratio : 2.35:1
Frame rate : 23.976 fps
Color space : YUV
Chroma subsampling : 4:2:0
Bit depth : 8 bits
Scan type : Progressive
Compression mode : Lossy
Bits/(Pixel*Frame) : 0.357
Stream size : 1.65 GiB (80%)
Writing library : XviD 1.2.1 (UTC 2008-12-04)
Audio
ID : 1
Format : AC-3
Format/Info : Audio Coding 3
Mode extension : CM (complete main)
Format settings, Endianness : Big
Codec ID : 2000
Duration : 2h 5mn
Bit rate mode : Constant
Bit rate : 448 Kbps
Channel(s) : 6 channels
Channel positions : Front: L C R, Side: L R, LFE
Sampling rate : 48.0 KHz
Bit depth : 16 bits
Compression mode : Lossy
Stream size : 403 MiB (19%)
Alignment : Split accross interleaves
Interleave, duration : 42 ms (1.00 video frame)
Interleave, preload duration : 500 ms

Скриншоты

Яндекс.Метрика
Рейтинг@Mail.ru