Бессонница / Сезон: 1 / полный / 16 серий (Андрей Мармонтов) [2014 г., боевик, WEB-DLRip]

 

Создавать темы 23-Апр-2014 11:03

-Бессонница-- Производство: Россия, DixiMedia
Жанр: боевик
Год выпуска: 2014 г.
Продолжительность: 00:44:00
Мировая премьера: 1 марта 2014
Режиссер: Андрей Мармонтов-В ролях: Юлия Юрченко, Александр Константинов, Анна Антонова, Мачей Штур, Эдуард Флёров, Владислав Павлов, Максим Щёголев, Александр Сетейкин, Алексей Матошин, Вероника Вернадская, Юлия Галкина, Андрей Курилов, Виктория Фишер, Дарья Повереннова, Виктор Проскурин, Алексей Фаддеев, Дмитрий Файнштейн, Дмитрий Астрахан, Елена Панджариди, Елена Коренева, Георгий Лежава, Дмитрий Астапенко, Михаил Хмуров, Юлия Шиферштейн-Описание: Без сна человеческий организм не может существовать бесконечно. В одном из подпольных казино, больше похожем на тайный клуб, играют только самые богатые, самые влиятельные и… самые пресыщенные. Те, кто готов ставить целые состояния на красное, если это красное — кровь. Для них и был создан новый тотализатор, основанный на игре «Бессонница», который проводится всего раз в год. Клиенты казино, делая свои ставки, рискуют миллионами, но игроки рискуют гораздо большим.
Из 10 игроков последний не заснувший и оставшийся в живых — победитель. И нельзя сказать, что участие в игре — дело полностью добровольное. Так, один из участников попадает в игру, нарушив закон. Задержавшие его полицейские дают ему право выбора: надолго оказаться в тюрьме или рискнуть и получить свободу.-
Тех. данные 1 по 8 серию:
Качество видео: WEB-DLRip
Контейнер: AVI
Видео кодек: XviD
Аудио кодек: MP3
Видео: MPEG-4 Visual at 1507 Кбит/сек: 720 x 400 (1.800) at 25.000 fps: 0.21 Бит/Пиксели
Аудио: MPEG Audio at 128 Кбит/сек: 2 канала, 44,1 КГц-Тех. данные с 9 по 16 серию:
Качество видео: SATRip
Контейнер: AVI
Видео кодек: XviD
Аудио кодек: MP3
Видео: MPEG-4 Visual at 1572 Кбит/сек: 704 x 368 (1.913) at 25.000 fps: 0.24 Бит/Пиксели
Аудио: MPEG Audio at 192 Кбит/сек: 2 канала, 48,0 КГц
Cубтитры: отсутствуют

Media Info WEB-DLRip

Общее
Полное имя                               : E:\_Сериалы\000\Бессонница\Bessonnitsa.2014.WEBRip\Bessonnitsa.2014.01.WEBRip.avi
Формат                                   : AVI
Формат/Информация                        : Audio Video Interleave
Размер файла                             : 522 Мбайт
Продолжительность                        : 44 м.
Общий поток                              : 1644 Кбит/сек
Программа кодирования                    : VirtualDubMod 1.5.10.3 || (build 2550/release)
Библиотека кодирования                   : VirtualDubMod build 2550/release
Видео
Идентификатор                            : 0
Формат                                   : MPEG-4 Visual
Профиль формата                          : Advanced [email protected]
Параметр BVOP формата                    : 1
Параметр QPel формата                    : Нет
Параметр GMC формата                     : Без точки перехода
Параметр матрицы формата                 : Выборочная
Идентификатор кодека                     : XVID
Идентификатор кодека/Подсказка           : XviD
Продолжительность                        : 44 м.
Битрейт                                  : 1507 Кбит/сек
Ширина                                   : 720 пикселей
Высота                                   : 400 пикселей
Соотношение сторон                       : 16:9
Частота кадров                           : 25,000 кадров/сек
Цветовое пространство                    : YUV
Субдискретизация насыщенности            : 4:2:0
Битовая глубина                          : 8 бит
Тип развёртки                            : Прогрессивная
Метод сжатия                             : С потерями
Бит/(Пиксели*Кадры)                      : 0.209
Размер потока                            : 478 Мбайт (92%)
Библиотека кодирования                   : XviD 1.2.1 (UTC 2008-12-04)
Аудио
Идентификатор                            : 1
Формат                                   : MPEG Audio
Версия формата                           : Version 1
Профиль формата                          : Layer 3
Идентификатор кодека                     : 55
Идентификатор кодека/Подсказка           : MP3
Продолжительность                        : 44 м.
Вид битрейта                             : Постоянный
Битрейт                                  : 128 Кбит/сек
Каналы                                   : 2 канала
Частота                                  : 44,1 КГц
Метод сжатия                             : С потерями
Размер потока                            : 40,6 Мбайт (8%)
Выравнивание                             : Разделение по промежуткам
Продолжительность промежутка             : 40  мс. (1,00 видеокадр)
Время предзагрузки промежутка            : 500  мс.
Библиотека кодирования                   : LAME3.99r
Настройки программы                      : -m s -V 4 -q 2 -lowpass 17 -b 128
761405
-

Media Info SATRip

Общее
Полное имя                               : E:\_Сериалы\000\Бессонница\Bessonnitsa.2014.WEBRip\Бессонница.2014.09.SATRip.avi
Формат                                   : AVI
Формат/Информация                        : Audio Video Interleave
Размер файла                             : 551 Мбайт
Продолжительность                        : 43 м.
Общий поток                              : 1773 Кбит/сек
Программа кодирования                    : VirtualDubMod 1.5.10.3 | www.virtualdub-fr.org || (build 2550/release)
Библиотека кодирования                   : VirtualDubMod build 2550/release
Видео
Идентификатор                            : 0
Формат                                   : MPEG-4 Visual
Профиль формата                          : Advanced [email protected]
Параметр BVOP формата                    : 1
Параметр QPel формата                    : Нет
Параметр GMC формата                     : Без точки перехода
Параметр матрицы формата                 : Default (MPEG)
Идентификатор кодека                     : XVID
Идентификатор кодека/Подсказка           : XviD
Продолжительность                        : 43 м.
Битрейт                                  : 1572 Кбит/сек
Ширина                                   : 704 пикселя
Высота                                   : 368 пикселей
Соотношение сторон                       : 1,913
Частота кадров                           : 25,000 кадров/сек
Цветовое пространство                    : YUV
Субдискретизация насыщенности            : 4:2:0
Битовая глубина                          : 8 бит
Тип развёртки                            : Прогрессивная
Метод сжатия                             : С потерями
Бит/(Пиксели*Кадры)                      : 0.243
Размер потока                            : 488 Мбайт (89%)
Библиотека кодирования                   : XviD 1.2.1 (UTC 2008-12-04)
Аудио
Идентификатор                            : 1
Формат                                   : MPEG Audio
Версия формата                           : Version 1
Профиль формата                          : Layer 3
Режим                                    : Joint stereo
Идентификатор кодека                     : 55
Идентификатор кодека/Подсказка           : MP3
Продолжительность                        : 43 м.
Вид битрейта                             : Постоянный
Битрейт                                  : 192 Кбит/сек
Каналы                                   : 2 канала
Частота                                  : 48,0 КГц
Метод сжатия                             : С потерями
Размер потока                            : 59,6 Мбайт (11%)
Выравнивание                             : Соединение по промежуткам
Продолжительность промежутка             : 40  мс. (1,00 видеокадр)
Время предзагрузки промежутка            : 504  мс.
Библиотека кодирования                   : LAME3.99r
Настройки программы                      : -m j -V 4 -q 2 -lowpass 18.6 -b 192
-

Скриншот c названием фильма

-

Скриншоты WEB-DLRip с 1 по 8 серию

-
-

Скриншоты SATRip с 9 по 16 серию

-
-Добавлена шестнадцатая, заключительная, серия первого сезона
Яндекс.Метрика
Рейтинг@Mail.ru