Федерал / Federal (Эрик Де Кастро / Erik de Castro) [2010 г., триллер, драма, BDRip, 720p] VO [Barin101] + Sub (Rus, Eng)

 

Создавать темы 23-Апр-2014 02:42

-Федерал / Federal-- Производство: Бразилия, Франция, Колумбия, BSB Cinema, Riofilme, Europa Filmes
Год выпуска: 2010 г.
Жанр: триллер, драма
Продолжительность: 01:31:25
Мировая премьера: 26 сентября 2010-Перевод: Любительский (одноголосый, закадровый) [Barin101]-Режиссер: Эрик Де Кастро / Erik de Castro
В ролях: Майкл Мэдсен, Селтон Меллу, Каролина Гомес, Роберто Кано, Карлос Альберто Риччелли, Эдуардо Душек,, Соланж Баррош, Аналу Силвейра, Адриано Сири, Christovam Netto-Описание: Фильм демонстрирует, какова на самом деле реальность в стране, которая является важным маршрутом в международной транспортировке наркотиков, а также одной из крупнейших потребителей наркотиков на планете. Опытный торговец наркотиками, ведет свою деятельность в городе Бразилиа, столице Бразилии. Полиция города прилагает немалые усилия, чтобы поймать его.-Качество видео: BDRip
Контейнер: MKV
Стандарт разрешения: 720p
Видео кодек: H.264
Аудио кодек: AC3
Видео: 1280x720 (16:9), 9 000 Kbps, 23.976 fps, 0.407 bit/pix
Аудио: 192 Kbps, 2 ch, 44.1 KHz
Cубтитры: Русские, английские
Дополнительно: Сохранены оригинальные чаптеры как на Blu-Ray.

Media Info

General
Unique ID : 226184836036737259377391204698204945353 (0xAA299D680D22746491A881518E1C3BC9)
Complete name : D:\Federal.2010.Blu.Ray.720p.mkv
Format : Matroska
Format version : Version 2
File size : 5.86 GiB
Duration : 1h 31mn
Overall bit rate : 9 185 Kbps
Encoded date : UTC 2014-04-22 10:37:14
Writing application : mkvmerge v4.7.0 ('Just Like You Imagined') сборка от Apr 21 2011 01:13:14
Writing library : libebml v1.2.0 + libmatroska v1.1.0
Video
ID : 1
Format : AVC
Format/Info : Advanced Video Codec
Format profile : [email protected]
Format settings, CABAC : Yes
Format settings, ReFrames : 4 frames
Codec ID : V_MPEG4/ISO/AVC
Duration : 1h 31mn
Bit rate : 9 000 Kbps
Width : 1 280 pixels
Height : 720 pixels
Display aspect ratio : 16:9
Frame rate mode : Constant
Frame rate : 23.976 fps
Color space : YUV
Chroma subsampling : 4:2:0
Bit depth : 8 bits
Scan type : Progressive
Bits/(Pixel*Frame) : 0.407
Stream size : 5.62 GiB (96%)
Writing library : x264 core 115 r1995 c1e60b9
Encoding settings : cabac=1 / ref=3 / deblock=1:-3:-3 / analyse=0x3:0x133 / me=umh / subme=10 / psy=1 / psy_rd=1.00:0.00 / mixed_ref=1 / me_range=32 / chroma_me=1 / trellis=2 / 8x8dct=1 / cqm=0 / deadzone=21,11 / fast_pskip=0 / chroma_qp_offset=-2 / threads=18 / sliced_threads=0 / nr=0 / decimate=0 / interlaced=0 / bluray_compat=0 / constrained_intra=0 / bframes=7 / b_pyramid=2 / b_adapt=2 / b_bias=0 / direct=3 / weightb=1 / open_gop=0 / weightp=2 / keyint=250 / keyint_min=23 / scenecut=40 / intra_refresh=0 / rc_lookahead=40 / rc=2pass / mbtree=0 / bitrate=9000 / ratetol=1.0 / qcomp=0.65 / qpmin=0 / qpmax=40 / qpstep=4 / cplxblur=20.0 / qblur=0.5 / vbv_maxrate=50000 / vbv_bufsize=50000 / nal_hrd=none / ip_ratio=1.25 / pb_ratio=1.25 / aq=1:0.65
Language : English
Default : Yes
Forced : No
Audio
ID : 2
Format : AC-3
Format/Info : Audio Coding 3
Mode extension : CM (complete main)
Format settings, Endianness : Big
Codec ID : A_AC3
Duration : 1h 31mn
Bit rate mode : Constant
Bit rate : 192 Kbps
Channel(s) : 2 channels
Channel positions : Front: L R
Sampling rate : 44.1 KHz
Bit depth : 16 bits
Compression mode : Lossy
Stream size : 126 MiB (2%)
Language : Russian
Default : Yes
Forced : Yes
Text #1
ID : 3
Format : UTF-8
Codec ID : S_TEXT/UTF8
Codec ID/Info : UTF-8 Plain Text
Language : Russian
Default : No
Forced : No
Text #2
ID : 4
Format : UTF-8
Codec ID : S_TEXT/UTF8
Codec ID/Info : UTF-8 Plain Text
Language : English
Default : No
Forced : No
Menu
00:00:00.000 : en:00:00:00.000
00:06:00.068 : en:00:06:00.068
00:14:40.213 : en:00:14:40.213
00:22:44.321 : en:00:22:44.321
00:32:08.468 : en:00:32:08.468
00:43:32.610 : en:00:43:32.610
00:53:53.439 : en:00:53:53.439
01:04:42.504 : en:01:04:42.504
01:14:18.245 : en:01:14:18.245
01:24:55.340 : en:01:24:55.340

Скриншоты

Яндекс.Метрика
Рейтинг@Mail.ru