[ Сегодня на трекере фрилич! Идет свободное скачивание без начисления Download ]

В спорте только девушки (Евгений Невский) [2014 г., комедия, DVDRip] (Лицензия)

 

Создавать темы 21-Апр-2014 05:43

-В спорте только девушки- Производство: Россия / Среда Фетисов Филмс
Жанр: комедия
Год выпуска: 2014 г.
Продолжительность: 01:29:42
Российская премьера: 6 февраля 2014, «Централ Партнершип»
Дата выхода DVD: 7 апреля 2014, «Новый Диск»
Дата выхода Blu-Ray: 21 апреля 2014, «Новый Диск»-Режиссер: Евгений Невский
В ролях: Лянка Грыу, Александр Головин, Екатерина Вилкова, Илья Глинников, Александр Ведменский, Михаил Трухин, Алена Чехова, Алексей Золотовицкий, Дмитрий Мухамадеев, Татьяна Рыбинец-Описание: Женская сборная по сноуборду ведет подготовку к Играм и направляется в Сочи на тестовые соревнования. Переодевшись в девушек, к ним присоединяются три скрывающихся от погони сноубордиста-фрирайдера. По приезду в Сочи, эти герои фильма «В спорте только девушки» заводят знакомство со спортсменками-американками.-Сэмпл КиноПоиск-Качество видео: DVDRip
Контейнер: AVI
Видео кодек: XviD
Аудио кодек: AC3
Видео: 720x304 (2.37:1), 25 fps, XviD build 50 ~1902 kbps avg, 0.35 bit/pixel
Аудио: 48 kHz, AC3 Dolby Digital, 3/2 (L,C,R,l,r) + LFE ch, ~384 kbps
Cубтитры: отсутствуют

Media Info

General
Complete name : C:\Users\Admin\Desktop\В.спорте.только.девушки.2014.DVDRip.avi
Format : AVI
Format/Info : Audio Video Interleave
File size : 1.44 GiB
Duration : 1h 29mn
Overall bit rate : 2 297 Kbps
Movie name : В спорте только девушки
Director : LPPI
Writing application : VirtualDubMod 1.5.10.2 (build 2540/release)
Video
ID : 0
Format : MPEG-4 Visual
Format profile : Advanced [email protected]
Format settings, BVOP : 2
Format settings, QPel : No
Format settings, GMC : No warppoints
Format settings, Matrix : Default (MPEG)
Codec ID : XVID
Codec ID/Hint : XviD
Duration : 1h 29mn
Bit rate : 1 903 Kbps
Width : 720 pixels
Height : 304 pixels
Display aspect ratio : 2.35:1
Frame rate : 25.000 fps
Color space : YUV
Chroma subsampling : 4:2:0
Bit depth : 8 bits
Scan type : Progressive
Compression mode : Lossy
Bits/(Pixel*Frame) : 0.348
Stream size : 1.19 GiB (83%)
Writing library : XviD 1.2.1 (UTC 2008-12-04)
Audio
ID : 1
Format : AC-3
Format/Info : Audio Coding 3
Mode extension : CM (complete main)
Format settings, Endianness : Big
Codec ID : 2000
Duration : 1h 29mn
Bit rate mode : Constant
Bit rate : 384 Kbps
Channel(s) : 6 channels
Channel positions : Front: L C R, Side: L R, LFE
Sampling rate : 48.0 KHz
Bit depth : 16 bits
Compression mode : Lossy
Stream size : 246 MiB (17%)
Alignment : Split accross interleaves
Interleave, duration : 40 ms (1.00 video frame)
Interleave, preload duration : 500 ms

Скриншоты

Яндекс.Метрика
Рейтинг@Mail.ru