Разумное сомнение / Reasonable Doubt (Питер Хауит / Peter Howitt) [2014 г., триллер, криминал, BDRip, 1080p] MVO [Позитив] + VO [Михаил Яроцкий, datynet, qwerty, ViruseProject - Александр Харченко] + Original (Eng) + Sub (Rus, Eng)

 

Создавать темы 21-Апр-2014 05:26

-Разумное сомнение / Reasonable Doubt-- Год выпуска: 2014 г.
Жанр: триллер, криминал
Продолжительность: 01:31:16
Мировая премьера: 17 января 2014
Перевод: Профессиональный (многоголосый, закадровый) [Позитив]
Перевод 2: Любительский (одноголосый, закадровый) [Михаил Яроцкий]
Перевод 3: Любительский (одноголосый, закадровый) [ViruseProject - Александр Харченко]
Перевод 4: Любительский (одноголосый, закадровый) [datynet]
Перевод 5: Любительский (одноголосый, закадровый) [qwerty]
Оригинальный аудиопоток: английский
Режиссёр: Питер Хауит / Peter Howitt-В ролях: Доминик Купер, Сэмюэл Л. Джексон, Эрин Карплак, Глория Рубен, Райан Роббинс, Дилан Тейлор, Филипп Бреннинкмейер, Лэйн Стайлз, Джон Б. Лоу, Джессика Бёрлсон-Описание: Митч Брокден – вполне благополучный и законопослушный гражданин, он примерный семьянин и, сделав неплохую карьеру, занимает пост окружного прокурора. Но однажды жизнь подвергает его серьёзному испытанию – Митч становится виновником дорожного происшествия, и по его вине погибает человек. Но поскольку дело происходит поздним вечером в безлюдном месте, Митч решает скрыться с места преступления и просто умолчать о произошедшем, оставив себе муки совести.
Вскоре за это преступление обвиняют другого человека, а Митч принимает участие в расследовании дела. Приложив все усилия к тому, чтобы оправдать невиновного, Митч добивается успеха, но вскоре понимает, что всё гораздо запутаннее, чем казалось на первый взгляд. Но изначально вступив на путь лжи, Митч не может никого посвятить в свою тайну и поэтому вынужден самостоятельно распутывать эту паутину, которая угрожает уже не только благополучию, но и жизни его близких.
- Качество видео: BDRip
Контейнер: MKV
Стандарт разрешения: 1080p
Видео кодек: AVC
Аудио кодек: AC3, DTS
Видео: 1920х800 (2.40:1), 12641 kbps, 23.976 fps, 0.342 bit/pixel
Аудио: Russian [Позитив]: AC3, 224 kbps, 2 ch, 48 kHz
Аудио #2: Russian [Михаил Яроцкий]: AC3, 384 kbps, 6 ch, 48 kHz
Аудио #3: Russian [ViruseProject]: AC3, 192 kbps, 2 ch, 48 kHz
Аудио #4: Russian [datynet]: AC3, 192 kbps, 2 ch, 44.1 kHz
Аудио #5: Russian [qwerty]: AC3, 192 kbps, 2 ch, 48 kHz
Аудио #6: English: DTS, 1509 kbps, 6 ch, 48 kHz
Cубтитры: русские, английские

Media Info

Общее
Уникальный идентификатор : 241609591542288506924506721974701212583 (0xB5C45091818D058C88EEC369CB2343A7)
Полное имя : Reasonable.Doubt.2014.Blu.Ray.1080p[pirat.ca].mkv
Формат : Matroska
Версия формата : Version 4 / Version 2
Размер файла : 9,75 Гбайт
Продолжительность : 1 ч. 31 м.
Общий поток : 15,3 Мбит/сек
Дата кодирования : UTC 2014-04-20 00:02:50
Программа кодирования : mkvmerge v6.9.1 ('Blue Panther') 64bit built on Apr 18 2014 18:23:38
Библиотека кодирования : libebml v1.3.0 + libmatroska v1.4.1
Видео
Идентификатор : 1
Формат : AVC
Формат/Информация : Advanced Video Codec
Профиль формата : [email protected]
Параметр CABAC формата : Да
Параметр ReFrames формата : 5 кадров
Идентификатор кодека : V_MPEG4/ISO/AVC
Продолжительность : 1 ч. 31 м.
Битрейт : 12,6 Мбит/сек
Ширина : 1920 пикселей
Высота : 800 пикселей
Соотношение сторон : 2,40:1
Режим частоты кадров : Постоянный
Частота кадров : 23,976 кадра/сек
Цветовое пространство : YUV
Субдискретизация насыщенности : 4:2:0
Битовая глубина : 8 бит
Тип развёртки : Прогрессивная
Бит/(Пиксели*Кадры) : 0.342
Размер потока : 7,84 Гбайт (80%)
Библиотека кодирования : x264 core 140 r2377+40 929f149 tMod [[email protected]:2:0 X86_64]
Настройки программы : cabac=1 / ref=5 / deblock=1:-3:-3 / analyse=0x3:0x113 / me=umh / subme=11 / psy=1 / fade_compensate=0.00 / psy_rd=1.10:0.00 / mixed_ref=1 / me_range=32 / chroma_me=1 / trellis=2 / 8x8dct=1 / cqm=0 / deadzone=21,11 / fast_pskip=0 / chroma_qp_offset=-2 / threads=18 / lookahead_threads=3 / sliced_threads=0 / nr=0 / decimate=0 / interlaced=0 / bluray_compat=0 / constrained_intra=0 / fgo=0 / bframes=8 / b_pyramid=2 / b_adapt=2 / b_bias=0 / direct=3 / weightb=1 / open_gop=0 / weightp=2 / keyint=240 / keyint_min=24 / scenecut=40 / intra_refresh=0 / rc=2pass / mbtree=0 / bitrate=12600 / ratetol=1.0 / qcomp=0.70 / qpmin=0:0:0 / qpmax=69:69:69 / qpstep=4 / cplxblur=20.0 / qblur=0.5 / ip_ratio=1.10 / pb_ratio=1.20 / aq=4:0.80 / aq-sensitivity=10.00 / aq-factor=1.00:1.00:1.00 / aq2=0 / aq3=0
Default : Да
Forced : Нет
Аудио #1
Идентификатор : 2
Формат : AC-3
Формат/Информация : Audio Coding 3
Расширение режима : CM (complete main)
Параметр Endianness формата : Big
Идентификатор кодека : A_AC3
Продолжительность : 1 ч. 31 м.
Вид битрейта : Постоянный
Битрейт : 224 Кбит/сек
Каналы : 2 канала
Расположение каналов : Front: L R
Частота : 48,0 КГц
Битовая глубина : 16 бит
Метод сжатия : С потерями
Размер потока : 146 Мбайт (1%)
Заголовок : Позитив
Язык : Russian
Default : Да
Forced : Да
Аудио #2
Идентификатор : 3
Формат : AC-3
Формат/Информация : Audio Coding 3
Расширение режима : CM (complete main)
Параметр Endianness формата : Big
Идентификатор кодека : A_AC3
Продолжительность : 1 ч. 31 м.
Вид битрейта : Постоянный
Битрейт : 384 Кбит/сек
Каналы : 6 каналов
Расположение каналов : Front: L C R, Side: L R, LFE
Частота : 48,0 КГц
Битовая глубина : 16 бит
Метод сжатия : С потерями
Размер потока : 251 Мбайт (3%)
Заголовок : Михаил Яроцкий
Язык : Russian
Default : Нет
Forced : Нет
Аудио #3
Идентификатор : 4
Формат : AC-3
Формат/Информация : Audio Coding 3
Расширение режима : CM (complete main)
Параметр Endianness формата : Big
Идентификатор кодека : A_AC3
Продолжительность : 1 ч. 31 м.
Вид битрейта : Постоянный
Битрейт : 192 Кбит/сек
Каналы : 2 канала
Расположение каналов : Front: L R
Частота : 48,0 КГц
Битовая глубина : 16 бит
Метод сжатия : С потерями
Размер потока : 125 Мбайт (1%)
Заголовок : ViruseProject - Александр Харченко
Язык : Russian
Default : Нет
Forced : Нет
Аудио #4
Идентификатор : 5
Формат : AC-3
Формат/Информация : Audio Coding 3
Расширение режима : CM (complete main)
Параметр Endianness формата : Big
Идентификатор кодека : A_AC3
Продолжительность : 1 ч. 31 м.
Вид битрейта : Постоянный
Битрейт : 192 Кбит/сек
Каналы : 2 канала
Расположение каналов : Front: L R
Частота : 44,1 КГц
Битовая глубина : 16 бит
Метод сжатия : С потерями
Размер потока : 125 Мбайт (1%)
Заголовок : datynet
Язык : Russian
Default : Нет
Forced : Нет
Аудио #5
Идентификатор : 6
Формат : AC-3
Формат/Информация : Audio Coding 3
Расширение режима : CM (complete main)
Параметр Endianness формата : Big
Идентификатор кодека : A_AC3
Продолжительность : 1 ч. 31 м.
Вид битрейта : Постоянный
Битрейт : 192 Кбит/сек
Каналы : 2 канала
Расположение каналов : Front: L R
Частота : 48,0 КГц
Битовая глубина : 16 бит
Метод сжатия : С потерями
Размер потока : 125 Мбайт (1%)
Заголовок : qwerty
Язык : Russian
Default : Нет
Forced : Нет
Аудио #6
Идентификатор : 7
Формат : DTS
Формат/Информация : Digital Theater Systems
Режим : 16
Параметр Endianness формата : Big
Идентификатор кодека : A_DTS
Продолжительность : 1 ч. 31 м.
Вид битрейта : Постоянный
Битрейт : 1509 Кбит/сек
Каналы : 6 каналов
Расположение каналов : Front: L C R, Side: L R, LFE
Частота : 48,0 КГц
Битовая глубина : 24 бит
Метод сжатия : С потерями
Размер потока : 985 Мбайт (10%)
Язык : English
Default : Нет
Forced : Нет
Текст #1
Идентификатор : 8
Формат : UTF-8
Идентификатор кодека : S_TEXT/UTF8
Идентификатор кодека/Информация : UTF-8 Plain Text
Заголовок : notabenoid
Язык : Russian
Default : Нет
Forced : Нет
Текст #2
Идентификатор : 9
Формат : UTF-8
Идентификатор кодека : S_TEXT/UTF8
Идентификатор кодека/Информация : UTF-8 Plain Text
Язык : English
Default : Нет
Forced : Нет
Меню
00:00:00.000 : en:00:00:00.000
00:05:23.990 : en:00:05:23.990
00:12:43.888 : en:00:12:43.888
00:15:54.829 : en:00:15:54.829
00:24:05.569 : en:00:24:05.569
00:27:10.420 : en:00:27:10.420
00:29:47.703 : en:00:29:47.703
00:35:27.959 : en:00:35:27.959
00:40:31.346 : en:00:40:31.346
00:44:28.791 : en:00:44:28.791
00:50:40.454 : en:00:50:40.454
00:54:05.325 : en:00:54:05.325
00:59:09.963 : en:00:59:09.963
01:06:54.886 : en:01:06:54.886
01:11:29.285 : en:01:11:29.285
01:17:59.383 : en:01:17:59.383

Скриншоты

Яндекс.Метрика
Рейтинг@Mail.ru