[ Сегодня на трекере фрилич! Идет свободное скачивание без начисления Download ]

Кремль-9. Климент Ворошилов. Опаленный властью (2004) SATRip

 

Создавать темы 20-Апр-2014 14:56

-Кремль-9. Климент Ворошилов. Опаленный властью (2004) SATRip- Режиссер / Телекомпания: Максим Иванников / Россия, «Останкино»
Год выпуска: 2004
Жанр: Документальный
Описание:
Климент Ворошилов – человек-легенда. Первый из пяти маршалов Советского Союза. О нем слагали стихи и песни, на него хотели быть похожими. Мало кому при жизни досталось столько почестей, наград, народной любви, как Клименту Ворошилову. Его полководческий талант многократно воспет в книгах и кинофильмах. Но насколько разговоры о таланте Ворошилова соответствуют действительности? Несостоятельность Климента Ворошилова как командующего армиями и фронтами проявилась в Гражданскую, Финскую, Великую Отечественную войны. Так кто же все-таки Климент Ворошилов – талант или посредственность?
Продолжительность: 00:38:58
Качество видео: SATRip
Видеокодек: DivX
Битрейт видео: ~1596 Kbps
Размер кадра: 628х528
Аудиокодек: AC3 2.0
Битрейт аудио: 192 Kbps

Mediainfo

General
Complete name : L:\Pshichko66\Na zapis'\Документальный фильмы\Kreml' 9. Opalenniy vlastiu. Kliment Voroshilov.avi
Format : AVI
Format/Info : Audio Video Interleave
File size : 501 MiB
Duration : 38mn 58s
Overall bit rate : 1 798 Kbps
Writing application : VirtualDubMod 1.5.10.2 (build 2540/release)
Writing library : VirtualDubMod build 2540/release
Video
ID : 0
Format : MPEG-4 Visual
Format profile : Advanced [email protected]
Format settings, BVOP : 1
Format settings, QPel : No
Format settings, GMC : No warppoints
Format settings, Matrix : Default (MPEG)
Codec ID : DX50
Codec ID/Hint : DivX 5
Duration : 38mn 58s
Bit rate : 1 596 Kbps
Width : 688 pixels
Height : 528 pixels
Display aspect ratio : 4:3
Frame rate : 25.000 fps
Color space : YUV
Chroma subsampling : 4:2:0
Bit depth : 8 bits
Scan type : Progressive
Compression mode : Lossy
Bits/(Pixel*Frame) : 0.176
Stream size : 445 MiB (89%)
Writing library : XviD 64
Audio
ID : 1
Format : AC-3
Format/Info : Audio Coding 3
Mode extension : CM (complete main)
Format settings, Endianness : Big
Codec ID : 2000
Duration : 38mn 58s
Bit rate mode : Constant
Bit rate : 192 Kbps
Channel count : 2 channels
Channel positions : Front: L R
Sampling rate : 48.0 KHz
Bit depth : 16 bits
Compression mode : Lossy
Stream size : 53.5 MiB (11%)
Alignment : Split accross interleaves
Interleave, duration : 40 ms (1.00 video frame)
Interleave, preload duration : 500 ms
Скриншоты
-Время раздачи: До появления стабильных сидов
Яндекс.Метрика
Рейтинг@Mail.ru