Орудия смерти: Город костей / The Mortal Instruments: City of Bones (2013) Blu-Ray Remux (1080p)

 

Создавать темы 14-Окт-2013 14:36

Информация о фильме
Название: Орудия смерти: Город костей
Оригинальное название: The Mortal Instruments: City of Bones
Год выхода: 2013
Жанр: фэнтези, боевик, драма, мелодрама, детектив, приключения
Режиссер: Харольд Цварт
В ролях: Лили Коллинз, Джейми Кэмпбелл Бауэр, Роберт Шиэн, Кевин Зегерс, Лина Хиди, Кевин Дюран, Эйдан Тернер, Джемайма Уэст, Роберт Мэйллет, Годфри Гао
О фильме:
Клэри Фрэй всегда считала себя самой обыкновенной девушкой, пока не выяснилось, что она — потомок древнего рода Сумеречных Охотников, тайной касты воинов-полуангелов, защищающих наш мир от демонов. Когда мама Клэри исчезает, девушка объединяется с Сумеречными охотниками, чтобы спасти ее. Так начинается ее опасное знакомство с иной реальностью, в которой существуют демоны, маги, вампиры, оборотни и другие смертоносные существа.

MPAA: PG-13 - Детям до 13 лет просмотр не желателен-Официальный сайт
Страна: Канада, Германия / Constantin Film Produktion, Don Carmody Productions, Unique Features
Продолжительность: 02:09:56
Перевод: Профессиональное (многоголосый закадровый)
Файл
Кодек: x264
Качество: Blu-Ray Remux (1080p)
Видео: MPEG-4 AVC, 1920x1080 (16:9), 13472 kbps, 23,976 fps, 0,271 bpp
Аудио №1: русский / AC3 / 5.1 / 48 kHz / 448 kbps / 16 bit |MVO|
Аудио №2: английский / DTS-HD / 5.1 / 48 kHz / 1560 kbps / 16 bit (Core: 5.1 / 48 kHz / 1510 kbps / 16 bit)
Навигация по главам: есть

MediaInfo

Format : Matroska
Format version : Version 4 / Version 2
File size : 14.3 GiB
Duration : 2h 9mn
Overall bit rate : 15.8 Mbps
Movie name : -=Odessit=-
Encoded date : UTC 2013-10-14 09:33:08
Writing application : mkvmerge v6.2.0 ('Promised Land') built on Apr 28 2013 12:22:01
Writing library : libebml v1.3.0 + libmatroska v1.4.0
Video
ID : 1
Format : AVC
Format/Info : Advanced Video Codec
Format profile : [email protected]
Format settings, CABAC : Yes
Format settings, ReFrames : 3 frames
Codec ID : V_MPEG4/ISO/AVC
Duration : 2h 9mn
Bit rate mode : Variable
Bit rate : 13.5 Mbps
Maximum bit rate : 25.0 Mbps
Width : 1 920 pixels
Height : 1 080 pixels
Display aspect ratio : 16:9
Frame rate : 23.976 fps
Standard : NTSC
Color space : YUV
Chroma subsampling : 4:2:0
Bit depth : 8 bits
Scan type : Progressive
Bits/(Pixel*Frame) : 0.271
Stream size : 12.2 GiB (85%)
Color primaries : BT.709-5, BT.1361, IEC 61966-2-4, SMPTE RP177
Transfer characteristics : BT.709-5, BT.1361
Matrix coefficients : BT.709-5, BT.1361, IEC 61966-2-4 709, SMPTE RP177
Audio #1
ID : 2
Format : AC-3
Format/Info : Audio Coding 3
Mode extension : CM (complete main)
Codec ID : A_AC3
Duration : 2h 9mn
Bit rate mode : Constant
Bit rate : 448 Kbps
Channel(s) : 6 channels
Channel positions : Front: L C R, Side: L R, LFE
Sampling rate : 48.0 KHz
Bit depth : 16 bits
Compression mode : Lossy
Stream size : 416 MiB (3%)
Language : Russian
Audio #2
ID : 3
Format : DTS
Format/Info : Digital Theater Systems
Format profile : MA / Core
Codec ID : A_DTS
Duration : 2h 9mn
Bit rate mode : Variable
Bit rate : 1 561 Kbps / 1 510 Kbps
Channel(s) : 6 channels
Channel positions : Front: L C R, Side: L R, LFE
Sampling rate : 48.0 KHz
Bit depth : 16 bits
Compression mode : Lossless / Lossy
Language : English
Menu
00:00:00.000 : en:00:00:00.000
00:13:03.032 : en:00:13:03.032
00:28:08.604 : en:00:28:08.604
00:41:10.343 : en:00:41:10.343
00:54:43.197 : en:00:54:43.197
01:10:06.452 : en:01:10:06.452
01:22:21.854 : en:01:22:21.854
01:36:54.183 : en:01:36:54.183
01:49:04.413 : en:01:49:04.413
02:02:48.695 : en:02:02:48.695
02:02:48.736 : en:02:02:48.736

Скриншоты


Создавать темы 26-Янв-2016 20:20 (спустя 2 года 3 месяца)

Топик был перенесен из форума Зарубежные Новинки (HD*Rip/LQ, DVDRip) в форум Зарубежные Фильмы (HD)
T_O_M
Яндекс.Метрика
Рейтинг@Mail.ru