Замкнутая цепь / Closed Circuit (Джон Краули / John Crowley) [2013 г., Триллер, драма, криминал, детектив, HDRip] VO (Д.Виноградов) + Original (Eng)

 

Создавать темы 19-Апр-2014 03:32

-Замкнутая цепь / Closed Circuit--«They see your every move» Производство: Великобритания США Focus Features, Working Title Films
Год выпуска: 2013 г.
Жанр: Триллер, драма, криминал, детектив
Продолжительность: 01:36:01
Мировая премьера: 28 августа 2013
Перевод: Любительский (одноголосый, закадровый) [Д.Виноградов]
Оригинальный аудиопоток: английский
Режиссер: Джон Краули / John Crowley-В ролях: Эрик Бана, Ребекка Холл, Киаран Хайндс, Джим Бродбент, Кейт Лок, Кэтерин Пресс, Патрик Уорнер, Рики Никсон, Дэниэл Туит, Зора Бишоп-Описание: На повестке дня — борьба с терроризмом. Угроза очередного террористического выпада объединяет экс-любовников Клодию и Мартина, зачисленных в команду сопротивления злодеям. С риском для жизни они не только устраняют угрозу, но и проверяют, на фоне главных мировых достопримечательностей, угасли ли их романтические чувства или что-то ещё искрит.-
Качество видео: HDRip
Контейнер: AVI
Видео кодек: XviD
Аудио кодек: AC3
Видео: XviD, 720x304 (2.35:1), 23.976 fps, ~1651 Kbit/s, 0.315 bit / pix
Аудио: Rus: 48 kHz, AC3, 2 ch, 192 Кбит/с VO (Д.Виноградов)
Аудио 2: Eng: 48 kHz, AC3, 2 ch, 320 Кбит/с (Original)
Cубтитры: отсутствуют

Media Info

General
Complete name : W:\Closed.Circuit.2013.L1.HDRip.avi
Format : AVI
Format/Info : Audio Video Interleave
Format profile : OpenDML
File size : 1.46 GiB
Duration : 1h 36mn
Overall bit rate : 2 182 Kbps
Writing application : Lavf55.35.101
Video
ID : 0
Format : MPEG-4 Visual
Format profile : Advanced [email protected]
Format settings, BVOP : Yes
Format settings, QPel : No
Format settings, GMC : No warppoints
Format settings, Matrix : Default (H.263)
Codec ID : XVID
Codec ID/Hint : XviD
Duration : 1h 36mn
Bit rate : 1 651 Kbps
Width : 720 pixels
Height : 304 pixels
Display aspect ratio : 2.35:1
Frame rate : 23.976 fps
Color space : YUV
Chroma subsampling : 4:2:0
Bit depth : 8 bits
Scan type : Progressive
Bits/(Pixel*Frame) : 0.315
Stream size : 1.11 GiB (76%)
Writing library : XviD 1.2.1 (UTC 2008-12-04)
Audio #1
ID : 1
Format : AC-3
Format/Info : Audio Coding 3
Mode extension : CM (complete main)
Codec ID : 2000
Duration : 1h 36mn
Bit rate mode : Constant
Bit rate : 192 Kbps
Channel(s) : 2 channels
Channel positions : Front: L R
Sampling rate : 48.0 KHz
Bit depth : 16 bits
Stream size : 132 MiB (9%)
Alignment : Aligned on interleaves
Interleave, duration : 32 ms (0.77 video frame)
Audio #2
ID : 2
Format : AC-3
Format/Info : Audio Coding 3
Mode extension : CM (complete main)
Codec ID : 2000
Duration : 1h 36mn
Bit rate mode : Constant
Bit rate : 320 Kbps
Channel(s) : 2 channels
Channel positions : Front: L R
Sampling rate : 48.0 KHz
Bit depth : 16 bits
Stream size : 220 MiB (15%)
Alignment : Aligned on interleaves
Interleave, duration : 32 ms (0.77 video frame)

Скриншоты

Яндекс.Метрика
Рейтинг@Mail.ru