[ Сегодня на трекере фрилич! Идет свободное скачивание без начисления Download ]

Прямая линия с Владимиром Путиным (2014.04.17) SATRip

 

Создавать темы 17-Апр-2014 16:07

-Прямая линия с Владимиром Путиным (2014.04.17) - Режиссер / Телекомпания: Первый канал
Русское название: Прямая линия с Владимиром Путиным
Год выпуска: 2014
Жанр: Телепередача

Описание:

Специальная программа, в ходе которой президент отвечает на вопросы, касающиеся общественно-политической и социально-экономической жизни страны. Задавать вопросы могут не только приглашенные в студию программы гости, но и граждане в ходе прямых включений из городов России.
17.Апреля.2014, 12:00 мск. Прямая трансляция специальной программы «Прямая линия с Владимиром Путиным».
Первая «прямая линия» состоялась 24 декабря 2001 года. Запланированный лимит общения с россиянами в рамках «прямой линии» Путин превысил с первой же попытки: в 2001 году беседа растянулась на два с половиной часа вместо предполагавшихся полутора. В последующие годы он хоть на минуту, но увеличивал протяженность «линий», доведя их до трех с лишним часов. В 2009 году Путин взял новую высоту, преодолев планку в четыре часа. Год спустя он довел общение до четырех часов 26 минут, а в 2011 году установил абсолютный рекорд – четыре с половиной часа. В 2013 году все рекорды были побиты - его общение с россиянами длилось 4 часа 47 минут.

Продолжительность: ~ 03:55:44
Видеокодек: XviD
Битрейт видео: ~1700 kb/s
Размер кадра: 704 x 400
Качество видео: SATRip
Аудиокодек: MP3, 2ch.
Битрейт аудио: 128 kb/s

MediaInfo

Формат : AVI
Формат/Информация : Audio Video Interleave
Профиль формата : OpenDML
Размер файла : 3,03 Гбайт
Продолжительность : 3 ч. 55 м.
Общий поток : 1839 Кбит/сек
Библиотека кодирования : Boilsoft AVI tool build 30012/release
Видео
Идентификатор : 0
Формат : MPEG-4 Visual
Профиль формата : Advanced [email protected]
Параметр BVOP формата : 1
Параметр QPel формата : Нет
Параметр GMC формата : Без точки перехода
Параметр матрицы формата : Default (H.263)
Режим смешивания : Сжатый битовый поток
Идентификатор кодека : XVID
Идентификатор кодека/Подсказка : XviD
Продолжительность : 3 ч. 55 м.
Битрейт : 1700 Кбит/сек
Ширина : 704 пикселя
Высота : 400 пикселей
Соотношение сторон : 16:9
Частота кадров : 25,000 кадров/сек
Цветовое пространство : YUV
Субдискретизация насыщенности : 4:2:0
Битовая глубина : 8 бит
Тип развёртки : Прогрессивная
Метод сжатия : С потерями
Бит/(Пиксели*Кадры) : 0.241
Размер потока : 2,80 Гбайт (92%)
Библиотека кодирования : XviD 64
Аудио
Идентификатор : 1
Формат : MPEG Audio
Версия формата : Version 1
Профиль формата : Layer 3
Режим : Joint stereo
Расширение режима : MS Stereo
Идентификатор кодека : 55
Идентификатор кодека/Подсказка : MP3
Продолжительность : 3 ч. 55 м.
Вид битрейта : Постоянный
Битрейт : 128 Кбит/сек
Каналы : 2 канала
Частота : 48,0 КГц
Метод сжатия : С потерями
Размер потока : 216 Мбайт (7%)
Выравнивание : Разделение по промежуткам
Продолжительность промежутка : 40 мс. (1,00 видеокадр)
Время предзагрузки промежутка : 500 мс.
Скриншоты:
-

Яндекс.Метрика
Рейтинг@Mail.ru