[ Сегодня на трекере фрилич! Идет свободное скачивание без начисления Download ]

Полицейская история 2014 / Jing cha gu shi 2013 (Дин Шэн / Ding Sheng) [2013 г., криминал, драма, триллер, боевик, BDRip] DVO [Студия "GREENTEA"]

 

Создавать темы 16-Апр-2014 17:42

-Полицейская история 2014 / Jing cha gu shi 2013- Производство: Китай, Гонконг / China Vision Group, Wanda Media Co.
Год выпуска: 2013 г.
Жанр: криминал, драма, триллер, боевик
Продолжительность: 01:50:07
Мировая премьера: 24 декабря 2013
Перевод: Любительский (двухголосый, закадровый) [Студия "GREENTEA"]-Режиссер: Дин Шэн / Ding Sheng
В ролях: Джеки Чан, Лю Е, Тянь Цзин, Бо Хуан, Юй Жун Гуан, Александр Байли, Макс Хуан, Джеймс Лоджа, Андреас Нгуйен-Описание: История начинается с того, что посетители паба оказываются взятыми в заложники. Среди посетителей есть офицер полиции Вэнь Чжун и его непослушная дочь Мяомяо. Человек, удерживающий всех в заложниках — владелец паба, который таким образом пытается добиться освобождения из тюрьмы одного преступника…- -Качество видео: BDRip
Контейнер: AVI
Видео кодек: XviD
Аудио кодек: AC3
Видео: 720x304 (2.37:1), 24 fps, XviD build 50 ~1549 kbps avg, 0.29 bit/pixel
Аудио: 48 kHz, AC3 Dolby Digital, 2/0 (L,R) ch, ~224 kbps
Cубтитры: отсутствуют

Media Info

General
Complete name                            : D:\Policeyskaya.Ist0r1ya.4.2013.BDRip.1400Mb.avi
Format                                   : AVI
Format/Info                              : Audio Video Interleave
File size                                : 1.37 GiB
Duration                                 : 1h 50mn
Overall bit rate                         : 1 783 Kbps
Writing application                      : VirtualDubMod 1.5.10.2 (build 2540/release)
Writing library                          : VirtualDubMod build 2540/release
Video
ID                                       : 0
Format                                   : MPEG-4 Visual
Format profile                           : Advanced [email protected]
Format settings, BVOP                    : 2
Format settings, QPel                    : No
Format settings, GMC                     : No warppoints
Format settings, Matrix                  : Custom
Codec ID                                 : XVID
Codec ID/Hint                            : XviD
Duration                                 : 1h 50mn
Bit rate                                 : 1 549 Kbps
Width                                    : 720 pixels
Height                                   : 304 pixels
Display aspect ratio                     : 2.35:1
Frame rate                               : 24.000 fps
Color space                              : YUV
Chroma subsampling                       : 4:2:0
Bit depth                                : 8 bits
Scan type                                : Progressive
Compression mode                         : Lossy
Bits/(Pixel*Frame)                       : 0.295
Stream size                              : 1.19 GiB (87%)
Writing library                          : XviD 1.2.1 (UTC 2008-12-04)
Audio
ID                                       : 1
Format                                   : AC-3
Format/Info                              : Audio Coding 3
Mode extension                           : CM (complete main)
Format settings, Endianness              : Big
Codec ID                                 : 2000
Duration                                 : 1h 50mn
Bit rate mode                            : Constant
Bit rate                                 : 224 Kbps
Channel(s)                               : 2 channels
Channel positions                        : Front: L R
Sampling rate                            : 48.0 KHz
Bit depth                                : 16 bits
Compression mode                         : Lossy
Stream size                              : 176 MiB (13%)
Alignment                                : Split accross interleaves
Interleave, duration                     : 42 ms (1.00 video frame)
Interleave, preload duration             : 500 ms

Скриншоты

Яндекс.Метрика
Рейтинг@Mail.ru