Как закалялся стайл / Сезон: 1 / Серии: 1-24 из 24 (Валентин Шпаков) [2013 г., Комедия, ситком, WEB-DL]

 

Создавать темы 16-Апр-2014 17:36

-Как закалялся стайл-- Производство: Украина
Жанр: Комедия, ситком
Год выпуска: 2013 - 2014
Продолжительность: 00:24:00
Режиссер: Валентин Шпаков-В ролях: Александр Ярмак, Евгений Янович, Анна Седокова, Алексей Горбунов, Алексей Маклаков-Описание: Это 24-серийный сериал - о студенте Саше Ярмаке... он живет в простом общежитии, и пробует себя как рэп - испонитель...но вдруг он понимает что его будущее может быть совсем другим, и что бы исполнить свою мечту, воплотить ее в реальность, он решает во что бы то ни стало, сделать все возможное...на помощь ему решается придти его лучший друг Гусь...он берет на себя обязанности продюсера...хотя в этом ничего не смыслит, всегда находит сомнительные варианты для выступлений. На пути к успеху им придется пойти если не на все, то на многое. Но кто сказал, что жизнь полная смеха и приключений – это не успех?
Качество видео: WEB-DL
Контейнер: AVI
Видео кодек: XviD
Аудио кодек: AC3
Видео: 720x400 (1.80:1), 25 fps, XviD MPEG-4 ~1808 kbps avg, 0.25 bit/pixel
Аудио: 44.1 kHz, AC3 Dolby Digital, 2/0 (L,R) ch, ~192 kbps
Cубтитры: отсутствуют-

Media Info

Общее
Полное имя: E:\скачки\торенты\Kak.zakalyalsya.stayl.XviD.2013.WEB-DLRip.avi
Формат: AVI
Формат/Информация: Audio Video Interleave
Размер файла: 350 Мбайт
Продолжительность: 24 м.
Общий поток: 2010 Кбит/сек
Программа кодирования: VirtualDubMod 1.5.10.3 | www.virtualdub-fr.org || (build 2550/release)
Библиотека кодирования: VirtualDubMod build 2550/release
Видео
Идентификатор: 0
Формат: MPEG-4 Visual
Профиль формата: Advanced [email protected]
Параметр BVOP формата: 1
Параметр QPel формата: Нет
Параметр GMC формата: Без точки перехода
Параметр матрицы формата: Default (MPEG)
Режим смешивания: Сжатый битовый поток
Идентификатор кодека: XVID
Идентификатор кодека/Подсказка: XviD
Продолжительность: 24 м.
Битрейт: 1809 Кбит/сек
Ширина: 720 пикселей
Высота: 400 пикселей
Соотношение сторон: 16:9
Частота кадров: 25,000 кадров/сек
Цветовое пространство: YUV
Субдискретизация насыщенности: 4:2:0
Битовая глубина: 8 бит
Тип развёртки: Прогрессивная
Метод сжатия: С потерями
Бит/(Пиксели*Кадры): 0.251
Размер потока: 315 Мбайт (90%)
Библиотека кодирования: XviD 64
Аудио
Идентификатор: 1
Формат: AC-3
Формат/Информация: Audio Coding 3
Расширение режима: CM (complete main)
Параметр Endianness формата: Big
Идентификатор кодека: 2000
Продолжительность: 24 м.
Вид битрейта: Постоянный
Битрейт: 192 Кбит/сек
Каналы: 2 канала
Расположение каналов: Front: L R
Частота: 44,1 КГц
Битовая глубина: 16 бит
Метод сжатия: С потерями
Размер потока: 33,5 Мбайт (10%)
Выравнивание: Разделение по промежуткам
Продолжительность промежутка: 40 мс. (1,00 видеокадр)
Время предзагрузки промежутка: 500 мс.

Скриншот c названием фильма

Скриншоты

24 СЕРИЯ (ФИНАЛ СЕЗОНА), 2 СЕЗОН ОСЕНЬЮ !
Яндекс.Метрика
Рейтинг@Mail.ru