Короли танцпола в 3Д / Battle of the Year 3D (Бенсон Ли / Benson Lee) [2013, Музыкальный, miniBDRip-AVC] Half OverUnder / Вертикальная анаморфная стереопара

 

Создавать темы 15-Апр-2014 02:56

Короли танцпола / Battle of the Year
«Весь мир у их ног»
Год выхода: 2013
Страна: США
Жанр: музыка
Продолжительность: 01:49:41
Перевод: Профессиональный (дублированный) [Blu-ray CEE] русский и украинский
Режиссер: Бенсон Ли
В ролях: Джош Холлоуэй, Лас Алонсо, Джош Пек, Кейти Лотц, Крис Браун, Иван «Флипз» Велез, Джон «Ду Нок» Крус, Джесси «Каспер» Браун, Дэвид Шрейбман, Саванди Уилсон
Описание: Фильм расскажет про подготовку би-боев, которые в конце года сразятся на финальном соревновании. Главные герои после поражения имеют не так много времени, чтобы подготовиться к встрече с лучшими би-боями мира, которые доминируют на играх уже 10 лет...
Формат 3D: Half SideBySide / Горизонтальная анаморфная стереопара
Порядок ракурсов: левый ракурс первый
Качество: miniBDRip
Контейнер: MKV
Видео кодек: x264
Аудио кодек: AC3
Видео: MPEG-4 AVC, 1800 Кбит/с, 1280х720, 23.976 кадр/с
Аудио 1: Russian: 48 kHz, AC3, 6 ch, 640.00 kbps avg |Дубляж|
Аудио 2: Ukrainian: 48 kHz, AC3, 6 ch, 640.00 kbps avg |Дубляж|

Скриншоты

MediaInfo

Общее
Уникальный идентификатор : 222921776664906863314762683622558230078 (0xA7B52C28889EE3D38F6A02FD169F663E)
Полное имя : D:\Download\Battle of the Year 3D 2013 miniBDRip 720p halfOU (IgorekSh) [torrent3d.net].mkv
Формат : Matroska
Версия формата : Version 2
Размер файла : 2,36 Гбайт
Продолжительность : 1 ч. 49 м.
Общий поток : 3080 Кбит/сек
Название фильма : torrent3d.net
Дата кодирования : UTC 2014-03-31 12:01:02
Программа кодирования : mkvmerge v4.0.0 ('The Stars were mine') сборка от Jun 6 2010 16:18:42
Библиотека кодирования : libebml v1.0.0 + libmatroska v1.0.0
Attachment : Yes
Видео
Идентификатор : 1
Формат : AVC
Формат/Информация : Advanced Video Codec
Профиль формата : [email protected]
Параметр CABAC формата : Да
Параметр ReFrames формата : 4 кадра
Идентификатор кодека : V_MPEG4/ISO/AVC
Продолжительность : 1 ч. 49 м.
Битрейт : 1800 Кбит/сек
Ширина : 1280 пикселей
Высота : 720 пикселей
Соотношение сторон : 16:9
Режим частоты кадров : Постоянный
Частота кадров : 23,976 кадра/сек
Цветовое пространство : YUV
Субдискретизация насыщенности : 4:2:0
Битовая глубина : 8 бит
Тип развёртки : Прогрессивная
Бит/(Пиксели*Кадры) : 0.081
Размер потока : 1,33 Гбайт (56%)
Заголовок : IgorekSh [torrent3d.net]
Библиотека кодирования : x264 core 138 r2358 9e941d1
Настройки программы : cabac=1 / ref=4 / deblock=1:-1:-1 / analyse=0x3:0x3 / me=dia / subme=1 / psy=1 / psy_rd=1.00:0.15 / mixed_ref=0 / me_range=16 / chroma_me=1 / trellis=0 / 8x8dct=1 / cqm=0 / deadzone=21,11 / fast_pskip=1 / chroma_qp_offset=0 / threads=6 / lookahead_threads=1 / sliced_threads=0 / nr=0 / decimate=1 / interlaced=0 / bluray_compat=0 / constrained_intra=0 / bframes=4 / b_pyramid=2 / b_adapt=1 / b_bias=0 / direct=1 / weightb=1 / open_gop=0 / weightp=1 / keyint=240 / keyint_min=23 / scenecut=40 / intra_refresh=0 / rc_lookahead=0 / rc=2pass / mbtree=0 / bitrate=1800 / ratetol=1.0 / qcomp=0.60 / qpmin=0 / qpmax=69 / qpstep=4 / cplxblur=20.0 / qblur=0.5 / vbv_maxrate=40000 / vbv_bufsize=30000 / nal_hrd=none / ip_ratio=1.40 / pb_ratio=1.30 / aq=1:1.00
Язык : English
Default : Нет
Forced : Нет
Аудио #1
Идентификатор : 2
Формат : AC-3
Формат/Информация : Audio Coding 3
Расширение режима : CM (complete main)
Параметр Endianness формата : Big
Идентификатор кодека : A_AC3
Продолжительность : 1 ч. 49 м.
Вид битрейта : Постоянный
Битрейт : 640 Кбит/сек
Каналы : 6 каналов
Расположение каналов : Front: L C R, Side: L R, LFE
Частота : 48,0 КГц
Битовая глубина : 16 бит
Метод сжатия : С потерями
Размер потока : 502 Мбайт (21%)
Заголовок : torrent3d.net
Язык : Russian
Default : Нет
Forced : Нет
Аудио #2
Идентификатор : 3
Формат : AC-3
Формат/Информация : Audio Coding 3
Расширение режима : CM (complete main)
Параметр Endianness формата : Big
Идентификатор кодека : A_AC3
Продолжительность : 1 ч. 49 м.
Вид битрейта : Постоянный
Битрейт : 640 Кбит/сек
Каналы : 6 каналов
Расположение каналов : Front: L C R, Side: L R, LFE
Частота : 48,0 КГц
Битовая глубина : 16 бит
Метод сжатия : С потерями
Размер потока : 502 Мбайт (21%)
Заголовок : torrent3d.net
Язык : Ukrainian
Default : Нет
Forced : Нет

Яндекс.Метрика
Рейтинг@Mail.ru