[ Сегодня на трекере фрилич! Идет свободное скачивание без начисления Download ]

Охотники за привидениями 2 / Ghostbusters II (Айвен Райтман / Ivan Reitman) [1989., США, Фантастика, комедия, приключения, HDTV 1080p] 2xMVO + DVO + 4xAVO (Либергал, Горчаков, Володарский, Живов) + Original (ENG) + Sub (RUS, ENG)

 

Создавать темы 15-Апр-2014 02:36

Ghostbusters II
Страна: США
Год выпуска: 1989
Жанр: Фантастика, комедия, приключения
Продолжительность: 1:43:54
Перевод 1: Профессиональный (многоголосый закадровый) [Tycoon]
Перевод 2: Профессиональный (многоголосый закадровый) [РТР]
Перевод 3: Профессиональный (двухголосый закадровый) [ОРТ]
Перевод 4: Авторский (одноголосый закадровый) [Либергал]
Перевод 5: Авторский (одноголосый закадровый) [Горчаков]
Перевод 6: Авторский (одноголосый закадровый) [Володарский]
Перевод 7: Авторский (одноголосый закадровый) [Живов]
Оригинальная аудиодорожка: Английская
Субтитры: Русские / Английские
Режиссер: Айвен Райтман / Ivan Reitman
В ролях: Билл Мюррей (Bill Murray), Дэн Эйкройд (Dan Aykroyd), Сигурни Уивер (Sigourney Weaver), Харольд Рэмис (Harold Ramis), Рик Морэнис (Rick Moranis), Эрни Хадсон (Ernie Hudson), Энни Поттс (Annie Potts), Питер МакНикол (Peter MacNicol), Харрис Юлин (Harris Yulin), Дэвид Маргулис (David Margulies) и другие.
Описание: Через пять лет все забыли о знаменитых охотниках, равно как и о самих привидениях. Но они и не думали исчезать… А это значит, что для отважной четвёрки снова есть работа. Теперь в их распоряжении новое современное оружие, которое поможет им одолеть даже самого страшного монстра. Облако чёрной энергии нависло над городом, а в городской канализации течёт река зловещего розового киселя. Наступает время последней решающей схватки!
Качество: HDTV
Контейнер: MKV
Видео: MPEG-4 AVC Video / 14.5 Mbps / 1080p / 25.000 fps / 16:9 / Main Profile 4.0
Аудио 1: Russian / Dolby AC3 / 5.1 / 48 kHz / 448 kbps / 16-bit - [MVO]
Аудио 2: Russian / Dolby AC3 / 2.0 / 48 kHz / 192 kbps / 16-bit - [MVO]
Аудио 3: Russian / Dolby AC3 / 2.0 / 48 kHz / 192 kbps / 16-bit - [DVO]
Аудио 4: Russian / Dolby AC3 / 5.1 / 48 kHz / 448 kbps / 16-bit - [AVO]
Аудио 5: Russian / Dolby AC3 / 5.1 / 48 kHz / 448 kbps / 16-bit - [AVO]
Аудио 6: Russian / Dolby AC3 / 2.0 / 48 kHz / 192 kbps / 16-bit - [AVO]
Аудио 7: Russian / Dolby AC3 / 2.0 / 48 kHz / 192 kbps / 16-bit - [AVO]
Аудио 8: English / Dolby AC3 / 5.1 / 48 kHz / 448 kbps / 16-bit

MediaInfo

Общее
Уникальный идентификатор : 213683425643909146301511801255561244471 (0xA0C1EE4958CE1C18BD3E2B3E2E27AF37)
Полное имя : D:\Torrent\Охотники за привидениями 2 (Ghostbusters II) [HDTV 1080p].mkv
Формат : Matroska
Версия формата : Version 4 / Version 2
Размер файла : 12,6 Гбайт
Продолжительность : 1 ч. 43 м.
Режим общего битрейта : Переменный
Общий поток : 17,4 Мбит/сек
Дата кодирования : UTC 2014-04-14 20:21:16
Программа кодирования : mkvmerge v6.8.0 ('Theme for Great Cities') 64bit built on Mar 2 2014 21:34:26
Библиотека кодирования : libebml v1.3.0 + libmatroska v1.4.1
Видео
Идентификатор : 1
Формат : AVC
Формат/Информация : Advanced Video Codec
Профиль формата : [email protected]
Параметр CABAC формата : Да
Параметр ReFrames формата : 2 кадра
Идентификатор кодека : V_MPEG4/ISO/AVC
Продолжительность : 1 ч. 43 м.
Вид битрейта : Переменный
Битрейт : 14,5 Мбит/сек
Максимальный битрейт : 40,0 Мбит/сек
Ширина : 1920 пикселей
Высота : 1080 пикселей
Соотношение сторон : 16:9
Режим частоты кадров : Постоянный
Частота кадров : 25,000 кадров/сек
Цветовое пространство : YUV
Субдискретизация насыщенности : 4:2:0
Битовая глубина : 8 бит
Тип развёртки : Прогрессивная
Бит/(Пиксели*Кадры) : 0.280
Размер потока : 10,5 Гбайт (83%)
Default : Да
Forced : Нет
Аудио #1
Идентификатор : 2
Формат : AC-3
Формат/Информация : Audio Coding 3
Расширение режима : CM (complete main)
Параметр Endianness формата : Big
Идентификатор кодека : A_AC3
Продолжительность : 1 ч. 43 м.
Вид битрейта : Постоянный
Битрейт : 448 Кбит/сек
Каналы : 6 каналов
Расположение каналов : Front: L C R, Side: L R, LFE
Частота : 48,0 КГц
Битовая глубина : 16 бит
Метод сжатия : С потерями
Размер потока : 333 Мбайт (3%)
Заголовок : Tycoon [MVO]
Язык : Russian
Default : Нет
Forced : Нет
Аудио #2
Идентификатор : 3
Формат : AC-3
Формат/Информация : Audio Coding 3
Расширение режима : CM (complete main)
Параметр Endianness формата : Big
Идентификатор кодека : A_AC3
Продолжительность : 1 ч. 43 м.
Вид битрейта : Постоянный
Битрейт : 192 Кбит/сек
Каналы : 2 канала
Расположение каналов : Front: L R
Частота : 48,0 КГц
Битовая глубина : 16 бит
Метод сжатия : С потерями
Размер потока : 143 Мбайт (1%)
Заголовок : РТР [MVO]
Язык : Russian
Default : Нет
Forced : Нет
Аудио #3
Идентификатор : 4
Формат : AC-3
Формат/Информация : Audio Coding 3
Расширение режима : CM (complete main)
Параметр Endianness формата : Big
Идентификатор кодека : A_AC3
Продолжительность : 1 ч. 43 м.
Вид битрейта : Постоянный
Битрейт : 192 Кбит/сек
Каналы : 2 канала
Расположение каналов : Front: L R
Частота : 48,0 КГц
Битовая глубина : 16 бит
Метод сжатия : С потерями
Размер потока : 143 Мбайт (1%)
Заголовок : ОРТ [DVO]
Язык : Russian
Default : Нет
Forced : Нет
Аудио #4
Идентификатор : 5
Формат : AC-3
Формат/Информация : Audio Coding 3
Расширение режима : CM (complete main)
Параметр Endianness формата : Big
Идентификатор кодека : A_AC3
Продолжительность : 1 ч. 43 м.
Вид битрейта : Постоянный
Битрейт : 448 Кбит/сек
Каналы : 6 каналов
Расположение каналов : Front: L C R, Side: L R, LFE
Частота : 48,0 КГц
Битовая глубина : 16 бит
Метод сжатия : С потерями
Размер потока : 333 Мбайт (3%)
Заголовок : Либергал [AVO]
Язык : Russian
Default : Нет
Forced : Нет
Аудио #5
Идентификатор : 6
Формат : AC-3
Формат/Информация : Audio Coding 3
Расширение режима : CM (complete main)
Параметр Endianness формата : Big
Идентификатор кодека : A_AC3
Продолжительность : 1 ч. 43 м.
Вид битрейта : Постоянный
Битрейт : 448 Кбит/сек
Каналы : 6 каналов
Расположение каналов : Front: L C R, Side: L R, LFE
Частота : 48,0 КГц
Битовая глубина : 16 бит
Метод сжатия : С потерями
Размер потока : 333 Мбайт (3%)
Заголовок : Горчаков [AVO]
Язык : Russian
Default : Нет
Forced : Нет
Аудио #6
Идентификатор : 7
Формат : AC-3
Формат/Информация : Audio Coding 3
Расширение режима : CM (complete main)
Параметр Endianness формата : Big
Идентификатор кодека : A_AC3
Продолжительность : 1 ч. 43 м.
Вид битрейта : Постоянный
Битрейт : 192 Кбит/сек
Каналы : 2 канала
Расположение каналов : Front: L R
Частота : 48,0 КГц
Битовая глубина : 16 бит
Метод сжатия : С потерями
Размер потока : 143 Мбайт (1%)
Заголовок : Володарский [AVO]
Язык : Russian
Default : Нет
Forced : Нет
Аудио #7
Идентификатор : 8
Формат : AC-3
Формат/Информация : Audio Coding 3
Расширение режима : CM (complete main)
Параметр Endianness формата : Big
Идентификатор кодека : A_AC3
Продолжительность : 1 ч. 43 м.
Вид битрейта : Постоянный
Битрейт : 192 Кбит/сек
Каналы : 2 канала
Расположение каналов : Front: L R
Частота : 48,0 КГц
Битовая глубина : 16 бит
Метод сжатия : С потерями
Размер потока : 143 Мбайт (1%)
Заголовок : Живов [AVO]
Язык : Russian
Default : Нет
Forced : Нет
Аудио #8
Идентификатор : 9
Формат : AC-3
Формат/Информация : Audio Coding 3
Расширение режима : CM (complete main)
Параметр Endianness формата : Big
Идентификатор кодека : A_AC3
Продолжительность : 1 ч. 43 м.
Вид битрейта : Постоянный
Битрейт : 448 Кбит/сек
Каналы : 6 каналов
Расположение каналов : Front: L C R, Side: L R, LFE
Частота : 48,0 КГц
Битовая глубина : 16 бит
Метод сжатия : С потерями
Размер потока : 333 Мбайт (3%)
Заголовок : Original
Язык : English
Default : Нет
Forced : Нет
Текст #1
Идентификатор : 10
Формат : UTF-8
Идентификатор кодека : S_TEXT/UTF8
Идентификатор кодека/Информация : UTF-8 Plain Text
Язык : Russian
Default : Нет
Forced : Нет
Текст #2
Идентификатор : 11
Формат : UTF-8
Идентификатор кодека : S_TEXT/UTF8
Идентификатор кодека/Информация : UTF-8 Plain Text
Язык : English
Default : Нет
Forced : Нет

Скриншоты


Яндекс.Метрика
Рейтинг@Mail.ru