[ Сегодня на трекере фрилич! Идет свободное скачивание без начисления Download ]

Need for Speed: Жажда скорости / Need for Speed ( Скотт Во/Scott Waugh) [2014, Боевик, Триллер, Драма, TS]

 

Создавать темы 14-Апр-2014 02:48

Need for Speed: Жажда скорости / Need for Speed- Год выпуска: 2014
Производство: США, Bandito Brothers, DreamWorks SKG, Electronic Arts, Reliance Entertainment
Жанр: Боевик, Триллер, Драма
Перевод: Дублированный
Субтитры: Отсутствуют
Режиссер: Скотт Во
Продюсер: Джон Гэйтинс, Патрик О’Брайэн, Марк Суриан
Актеры: Дакота Джонсон, Скотт Мескади, Ник Чинланд, Майкл Китон, Рамон Родригес, Доминик Купер, Имоджен Путс, Рами Малек, Сэр Маджор, Аарон Пол
Описание фильма:
История Тоби Маршалла, гениального автомеханика, чьей единственной отдушиной является участие в подпольных гонках. Чтобы сохранить семейную мастерскую, Тоби вынужден взять в партнеры богатого и заносчивого бывшего гонщика NASCAR Дино Брюстера. Когда дела Тоби наконец-то начинают идти в гору, Дино подставляет партнера, и Тоби обвиняют в преступлении, которого он не совершал. Спустя два года Тоби выходит из тюрьмы с мыслью о мести. Чтобы достичь своей цели, ему придется совершить невозможное и доказать, что даже в мире броских суперкаров самый невзрачный гонщик может финишировать первым.
Дата мировой премьеры: 12 марта 2014
Дата российской премьеры: 13 марта 2014, «WDSSPR»
Дата выхода DVD релиза: 10 июня 2014, «Уолт Дисней Компани СНГ»
Продолжительность: 02:10:34
Качество видео: TS
Видеокодек: XviD
Битрейт видео: 1843 Kbps
Размер кадра: 720x288
Аудио #1: Русский: MP3, 48.0 KHz, 2 ch, 128 Kbps, CBR
Аудио #2: Английский: AC-3, 48.0 KHz, 2 ch, 256 Kbps, CBR

MediaInfo:

Общее
Полное имя : E:\Фильмы\Need.For.Speed.2014.D.TS.2100MB.avi
Формат : AVI
Формат/Информация : Audio Video Interleave
Профиль формата : OpenDML
Размер файла : 2,05 Гбайт
Продолжительность : 2 ч. 10 м.
Общий поток : 2250 Кбит/сек
Программа кодирования : VirtualDubMod 1.5.10.2 (build 2540/release)
Библиотека кодирования : VirtualDubMod build 2540/release
Видео
Идентификатор : 0
Формат : MPEG-4 Visual
Профиль формата : Advanced [email protected]
Параметр BVOP формата : 2
Параметр QPel формата : Нет
Параметр GMC формата : Без точки перехода
Параметр матрицы формата : Выборочная
Идентификатор кодека : XVID
Идентификатор кодека/Подсказка : XviD
Продолжительность : 2 ч. 10 м.
Битрейт : 1843 Кбит/сек
Ширина : 720 пикселей
Высота : 288 пикселей
Соотношение сторон : 2,500
Частота кадров : 29,970 кадров/сек
Цветовое пространство : YUV
Субдискретизация насыщенности : 4:2:0
Битовая глубина : 8 бит
Тип развёртки : Прогрессивная
Метод сжатия : С потерями
Бит/(Пиксели*Кадры) : 0.297
Размер потока : 1,68 Гбайт (82%)
Библиотека кодирования : XviD 1.2.1 (UTC 2008-12-04)
Аудио #1
Идентификатор : 1
Формат : MPEG Audio
Версия формата : Version 1
Профиль формата : Layer 3
Режим : Joint stereo
Расширение режима : MS Stereo
Идентификатор кодека : 55
Идентификатор кодека/Подсказка : MP3
Продолжительность : 2 ч. 10 м.
Вид битрейта : Постоянный
Битрейт : 128 Кбит/сек
Каналы : 2 канала
Частота : 48,0 КГц
Метод сжатия : С потерями
Размер потока : 120 Мбайт (6%)
Выравнивание : Соединение по промежуткам
Продолжительность промежутка : 33 мс. (1,00 видеокадр)
Время предзагрузки промежутка : 504 мс.
Аудио #2
Идентификатор : 2
Формат : AC-3
Формат/Информация : Audio Coding 3
Расширение режима : CM (complete main)
Параметр Endianness формата : Big
Идентификатор кодека : 2000
Продолжительность : 2 ч. 10 м.
Вид битрейта : Постоянный
Битрейт : 256 Кбит/сек
Каналы : 2 канала
Расположение каналов : Front: L R
Частота : 48,0 КГц
Битовая глубина : 16 бит
Метод сжатия : С потерями
Размер потока : 239 Мбайт (11%)
Выравнивание : Разделение по промежуткам
Продолжительность промежутка : 33 мс. (1,00 видеокадр)
Время предзагрузки промежутка : 500 мс.
Скриншоты:
Яндекс.Метрика
Рейтинг@Mail.ru