[ Сегодня на трекере фрилич! Идет свободное скачивание без начисления Download ]

Один плюс один дома / 1+1 дома (Телекомпания 1+1) [Комедия, Мюзикл, 2014] (SATRip)

 

Создавать темы 14-Апр-2014 02:44

Один плюс один дома / 1+1 дома- Режиссер / Телекомпания:
Русское название: Один плюс один дома / 1+1 дома
Год выпуска: 2014
Жанр: Комедия, Мюзикл
Выпущено: Украина, Студия 95 Квартал
Описание:
"1+1 дома" - это новогодний музыкальный фильм , созданный "Кварталом 95". В основе мюзикла лежит любимая всеми голливудская комедия с Маколей Калкин " Один дома " . Специально для съемки " 1+1 дома " было создано в съемочном павильоне целый город в стиле старой Праги . В нем около 20 домов , кафе , центральная площадь , магазины , лес , а также вагон поезда " Хюндай".
В отличие от известного всем фильма " Один дома " в мюзикле " 1 +1 дома" главных героев двое - Миша и Соня. Их роли сыграют 9 - летний Иван Шмаков , для которого " 1 +1 дома" уже 14 картина в фильмографии , и 10- летняя Анна Полищук , которая снималась в 5 - м и 6 - м сезонах "Сватов" . Бандитов в этой ленте сыграли " кварталовцы " - Владимир Зеленский , Евгений Кошевой и Елена Кравец.
Положительные роли достались ведущим 1+1: Людмиле Барбир , Марине Леончук , Юрию Горбунову , Андрею Доманскому , Руслан Сеничкин и Анатолию Анатолич . В частности , Андрей Доманский и Людмила Барбир сыграли родителей главного героя Миши , а Юрий Горбунов и Марина Леончук - родителей Сони .
Кроме того участие в новогоднем мюзикле приняли украинские певцы : Руслана, Александр Пономарев Олег Скрипка , Потап и Настя и другие.

Актеры: Иван Шмаков, Анна Полищук, Владимир Зеленский, Евгений Кошевой, Елена Кравец, Людмила Барбир, Марина Леончук, Юрий Горбунов, Андрей Доманский, Руслан Сеничкин, Руслана Лыжичко, Александр Пономарев, Олег Скрипка, Потап, Анастасия Каменских-Продолжительность: 01:46:57
Видеокодек: DivX
Качество видео: SATRip
Битрейт видео: ~1850 kb/s
Размер кадра: 720 x 400
Аудиокодек: MP3, 2.0ch.
Битрейт аудио: 128 kb/s

MediaInfo:

Формат : AVI
Формат/Информация : Audio Video Interleave
Размер файла : 1,49 Гбайт
Продолжительность : 1 ч. 46 м.
Общий поток : 1989 Кбит/сек
Библиотека кодирования : Boilsoft AVI tool build 1/release
Видео
Идентификатор : 0
Формат : MPEG-4 Visual
Параметр BVOP формата : 1
Параметр QPel формата : Нет
Параметр GMC формата : Без точки перехода
Параметр матрицы формата : Default (H.263)
Режим смешивания : Сжатый битовый поток
Идентификатор кодека : DX50
Идентификатор кодека/Подсказка : DivX 5
Продолжительность : 1 ч. 46 м.
Битрейт : 1852 Кбит/сек
Ширина : 720 пикселей
Высота : 400 пикселей
Соотношение сторон : 16:9
Частота кадров : 25,000 кадров/сек
Цветовое пространство : YUV
Субдискретизация насыщенности : 4:2:0
Битовая глубина : 8 бит
Тип развёртки : Прогрессивная
Метод сжатия : С потерями
Бит/(Пиксели*Кадры) : 0.257
Размер потока : 1,38 Гбайт (93%)
Библиотека кодирования : DivX 6.8.5 (UTC 2009-08-20)
Аудио
Идентификатор : 1
Формат : MPEG Audio
Версия формата : Version 1
Профиль формата : Layer 3
Режим : Joint stereo
Расширение режима : MS Stereo
Идентификатор кодека : 55
Идентификатор кодека/Подсказка : MP3
Продолжительность : 1 ч. 46 м.
Вид битрейта : Постоянный
Битрейт : 128 Кбит/сек
Каналы : 2 канала
Частота : 48,0 КГц
Метод сжатия : С потерями
Размер потока : 97,9 Мбайт (6%)
Выравнивание : Разделение по промежуткам
Продолжительность промежутка : 40 мс. (1,00 видеокадр)
Время предзагрузки промежутка : 500 мс.
Скриншоты:--
Яндекс.Метрика
Рейтинг@Mail.ru