Челленджер / The Challenger (Джеймс Хоуз / James Hawes) [2013 г., драма, HDTVRip] MVO

 

Создавать темы 12-Апр-2014 12:53

-Челленджер / The Challenger- Производство: Великобритания, США / BBC Films, Erste Weltweit Medien, Moonlighting Films
Год выпуска: 2013 г.
Жанр: драма
Продолжительность: 01:29:17
Мировая премьера: 18 марта 2013
Перевод: Профессиональный (многоголосый, закадровый)-Режиссер: Джеймс Хоуз / James Hawes
В ролях: Уильям Хёрт, Брюс Гринвуд, Джоэнн Уэлли, Брайан Деннехи, Кевин МакНэлли, Лэнгли Кирквуд, Ив Бест, Шон Майкл, Генри Гудман, Роберт Хоббс-Описание: Фильм основан на реальных событиях. Катастрофа "Челленджера" - величайшая трагедия в истории американской и мировой космонавтики. Расследование катастрофы ведет Ричард Фейнман, один из самых известных ученых своего времени...-Качество видео: HDTVRip
Контейнер: AVI
Видео кодек: XviD
Аудио кодек: AC3
Видео: 720x400 (1.80:1), 25 fps, XviD build 50 ~1988 kbps avg, 0.28 bit/pixel
Аудио: 48 kHz, AC3 Dolby Digital, 2/0 (L,R) ch, ~192 kbps
Cубтитры: отсутствуют

Media Info

General
Complete name                            : D:\The.Chelendzher_2013.HDTVRip.avi
Format                                   : AVI
Format/Info                              : Audio Video Interleave
File size                                : 1.37 GiB
Duration                                 : 1h 29mn
Overall bit rate                         : 2 190 Kbps
Writing application                      : VirtualDubMod 1.5.10.2 (build 2540/release)
Writing library                          : VirtualDubMod build 2540/release
Video
ID                                       : 0
Format                                   : MPEG-4 Visual
Format profile                           : Advanced [email protected]
Format settings, BVOP                    : 2
Format settings, QPel                    : No
Format settings, GMC                     : No warppoints
Format settings, Matrix                  : Default (MPEG)
Codec ID                                 : XVID
Codec ID/Hint                            : XviD
Duration                                 : 1h 29mn
Bit rate                                 : 1 988 Kbps
Width                                    : 720 pixels
Height                                   : 400 pixels
Display aspect ratio                     : 16:9
Frame rate                               : 25.000 fps
Color space                              : YUV
Chroma subsampling                       : 4:2:0
Bit depth                                : 8 bits
Scan type                                : Progressive
Compression mode                         : Lossy
Bits/(Pixel*Frame)                       : 0.276
Stream size                              : 1.24 GiB (91%)
Writing library                          : XviD 1.2.1 (UTC 2008-12-04)
Audio
ID                                       : 1
Format                                   : AC-3
Format/Info                              : Audio Coding 3
Mode extension                           : CM (complete main)
Format settings, Endianness              : Big
Codec ID                                 : 2000
Duration                                 : 1h 29mn
Bit rate mode                            : Constant
Bit rate                                 : 192 Kbps
Channel(s)                               : 2 channels
Channel positions                        : Front: L R
Sampling rate                            : 48.0 KHz
Bit depth                                : 16 bits
Compression mode                         : Lossy
Stream size                              : 122 MiB (9%)
Alignment                                : Split accross interleaves
Interleave, duration                     : 40 ms (1.00 video frame)
Interleave, preload duration             : 500 ms

Скриншоты

Яндекс.Метрика
Рейтинг@Mail.ru